999
dxfrw 0.6.3
  0
SECTION
  2
HEADER
  9
$ACADVER
  1
AC1021
  9
$DWGCODEPAGE
  3
ANSI_1252
  9
$INSBASE
 10
0
 20
0
 30
0
  9
$EXTMIN
 10
-2900.000000010455
 20
-1922.264209110002
 30
0
  9
$EXTMAX
 10
807.7102963199993
 20
520.3137802399995
 30
0
  9
$LIMMIN
 10
0
 20
0
  9
$LIMMAX
 10
22
 20
17
  9
$ORTHOMODE
 70
    0
  9
$REGENMODE
 70
    1
  9
$FILLMODE
 70
    1
  9
$QTEXTMODE
 70
    0
  9
$MIRRTEXT
 70
    0
  9
$LTSCALE
 40
1.21
  9
$ATTMODE
 70
    0
  9
$TEXTSIZE
 40
2.5
  9
$TRACEWID
 40
15.68
  9
$TEXTSTYLE
  7
STANDARD
  9
$CLAYER
  8
frame_rr10
  9
$CELTYPE
  6
BYLAYER
  9
$CECOLOR
 62
  256
  9
$CELTSCALE
 40
1
  9
$DISPSILH
 70
    0
  9
$DIMSCALE
 40
1
  9
$DIMASZ
 40
0.1875
  9
$DIMEXO
 40
0.1375
  9
$DIMDLI
 40
0.836
  9
$DIMRND
 40
0
  9
$DIMDLE
 40
0
  9
$DIMEXE
 40
0.396
  9
$DIMTP
 40
0.001
  9
$DIMTM
 40
0.001
  9
$DIMTXT
 40
10
  9
$DIMCEN
 40
0.198
  9
$DIMTSZ
 40
0
  9
$DIMTOL
 70
    1
  9
$DIMLIM
 70
    0
  9
$DIMTIH
 70
    0
  9
$DIMTOH
 70
    0
  9
$DIMSE1
 70
    0
  9
$DIMSE2
 70
    0
  9
$DIMTAD
 70
    1
  9
$DIMZIN
 70
    8
  9
$DIMBLK
  1
_FILLED
  9
$DIMASO
 70
    1
  9
$DIMSHO
 70
    1
  9
$DIMPOST
  1

  9
$DIMAPOST
  1

  9
$DIMALT
 70
    0
  9
$DIMALTD
 70
    3
  9
$DIMALTF
 40
0.03937
  9
$DIMLFAC
 40
1
  9
$DIMTOFL
 70
    1
  9
$DIMTVP
 40
0
  9
$DIMTIX
 70
    0
  9
$DIMSOXD
 70
    0
  9
$DIMSAH
 70
    0
  9
$DIMBLK1
  1

  9
$DIMBLK2
  1

  9
$DIMSTYLE
  2
Standard
  9
$DIMCLRD
 70
    0
  9
$DIMCLRE
 70
    0
  9
$DIMCLRT
 70
    0
  9
$DIMTFAC
 40
1
  9
$DIMGAP
 40
0.625
  9
$DIMJUST
 70
    0
  9
$DIMSD1
 70
    0
  9
$DIMSD2
 70
    0
  9
$DIMTOLJ
 70
    0
  9
$DIMTZIN
 70
    8
  9
$DIMALTZ
 70
    0
  9
$DIMALTTZ
 70
    0
  9
$DIMUPT
 70
    0
  9
$DIMDEC
 70
    2
  9
$DIMTDEC
 70
    2
  9
$DIMALTU
 70
    2
  9
$DIMALTTD
 70
    3
  9
$DIMTXSTY
  7
STANDARD
  9
$DIMAUNIT
 70
    0
  9
$DIMADEC
 70
    0
  9
$DIMALTRND
 40
0
  9
$DIMAZIN
 70
    0
  9
$DIMDSEP
 70
   44
  9
$DIMATFIT
 70
    3
  9
$DIMFRAC
 70
    0
  9
$DIMLDRBLK
  1
STANDARD
  9
$DIMLUNIT
 70
    2
  9
$DIMLWD
 70
   -2
  9
$DIMLWE
 70
   -2
  9
$DIMTMOVE
 70
    0
  9
$DIMFXL
 40
1
  9
$DIMFXLON
 70
    0
  9
$DIMJOGANG
 40
0.7854
  9
$DIMTFILL
 70
    0
  9
$DIMTFILLCLR
 70
    0
  9
$DIMARCSYM
 70
    0
  9
$DIMLTYPE
  6

  9
$DIMLTEX1
  6

  9
$DIMLTEX2
  6

  9
$LUNITS
 70
    2
  9
$LUPREC
 70
    4
  9
$SKETCHINC
 40
1
  9
$FILLETRAD
 40
0
  9
$AUNITS
 70
    0
  9
$AUPREC
 70
    2
  9
$MENU
  1
.
  9
$ELEVATION
 40
0
  9
$PELEVATION
 40
0
  9
$THICKNESS
 40
0
  9
$LIMCHECK
 70
    0
  9
$CHAMFERA
 40
0
  9
$CHAMFERB
 40
0
  9
$CHAMFERC
 40
0
  9
$CHAMFERD
 40
0
  9
$SKPOLY
 70
    0
  9
$USRTIMER
 70
    1
  9
$ANGBASE
 50
0
  9
$ANGDIR
 70
    0
  9
$PDMODE
 70
    3
  9
$PDSIZE
 40
0.3125
  9
$PLINEWID
 40
0
  9
$SPLFRAME
 70
    0
  9
$SPLINETYPE
 70
    2
  9
$SPLINESEGS
 70
    8
  9
$HANDSEED
  5
20000
  9
$SURFTAB1
 70
    6
  9
$SURFTAB2
 70
    6
  9
$SURFTYPE
 70
    6
  9
$SURFU
 70
    6
  9
$SURFV
 70
    6
  9
$UCSBASE
  2

  9
$UCSNAME
  2

  9
$UCSORG
 10
0
 20
0
 30
0
  9
$UCSXDIR
 10
1
 20
0
 30
0
  9
$UCSYDIR
 10
0
 20
1
 30
0
  9
$UCSORTHOREF
  2

  9
$UCSORTHOVIEW
 70
    0
  9
$UCSORGTOP
 10
0
 20
0
 30
0
  9
$UCSORGBOTTOM
 10
0
 20
0
 30
0
  9
$UCSORGLEFT
 10
0
 20
0
 30
0
  9
$UCSORGRIGHT
 10
0
 20
0
 30
0
  9
$UCSORGFRONT
 10
0
 20
0
 30
0
  9
$UCSORGBACK
 10
0
 20
0
 30
0
  9
$PUCSBASE
  2

  9
$PUCSNAME
  2

  9
$PUCSORG
 10
0
 20
0
 30
0
  9
$PUCSXDIR
 10
1
 20
0
 30
0
  9
$PUCSYDIR
 10
0
 20
1
 30
0
  9
$PUCSORTHOREF
  2

  9
$PUCSORTHOVIEW
 70
    0
  9
$PUCSORGTOP
 10
0
 20
0
 30
0
  9
$PUCSORGBOTTOM
 10
0
 20
0
 30
0
  9
$PUCSORGLEFT
 10
0
 20
0
 30
0
  9
$PUCSORGRIGHT
 10
0
 20
0
 30
0
  9
$PUCSORGFRONT
 10
0
 20
0
 30
0
  9
$PUCSORGBACK
 10
0
 20
0
 30
0
  9
$USERI1
 70
    0
  9
$USERI2
 70
    0
  9
$USERI3
 70
    0
  9
$USERI4
 70
    0
  9
$USERI5
 70
    0
  9
$USERR1
 40
0
  9
$USERR2
 40
0
  9
$USERR3
 40
0
  9
$USERR4
 40
0
  9
$USERR5
 40
0
  9
$WORLDVIEW
 70
    1
  9
$SHADEDGE
 70
    3
  9
$SHADEDIF
 70
   70
  9
$TILEMODE
 70
    1
  9
$MAXACTVP
 70
   64
  9
$PINSBASE
 10
2366.539801440827
 20
1378.991053798702
 30
0
  9
$PLIMCHECK
 70
    0
  9
$PEXTMIN
 10
0
 20
0
 30
0
  9
$PEXTMAX
 10
0
 20
0
 30
0
  9
$GRIDMODE
 70
    1
  9
$SNAPSTYLE
 70
    0
  9
$GRIDUNIT
 10
0
 20
0
  9
$VIEWCTR
 10
11
 20
8.5
  9
$PLIMMIN
 10
0
 20
0
  9
$PLIMMAX
 10
210
 20
297
  9
$UNITMODE
 70
    0
  9
$VISRETAIN
 70
    1
  9
$PLINEGEN
 70
    0
  9
$PSLTSCALE
 70
    1
  9
$TREEDEPTH
 70
 3020
  9
$CMLSTYLE
  2
Standard
  9
$CMLJUST
 70
    0
  9
$CMLSCALE
 40
20
  9
$PROXYGRAPHICS
 70
    1
  9
$MEASUREMENT
 70
    0
  9
$CELWEIGHT
370
   -1
  9
$ENDCAPS
280
    0
  9
$JOINSTYLE
280
    0
  9
$LWDISPLAY
290
    0
  9
$INSUNITS
 70
    4
  9
$HYPERLINKBASE
  1

  9
$STYLESHEET
  1

  9
$XEDIT
290
    1
  9
$CEPSNTYPE
380
    0
  9
$PSTYLEMODE
290
    1
  9
$EXTNAMES
290
    1
  9
$PSVPSCALE
 40
1
  9
$OLESTARTUP
290
    0
  9
$SORTENTS
280
  127
  9
$INDEXCTL
280
    0
  9
$HIDETEXT
280
    1
  9
$XCLIPFRAME
290
    0
  9
$HALOGAP
280
    0
  9
$OBSCOLOR
 70
  257
  9
$OBSLTYPE
280
    0
  9
$INTERSECTIONDISPLAY
280
    0
  9
$INTERSECTIONCOLOR
 70
  257
  9
$DIMASSOC
280
    1
  9
$PROJECTNAME
  1

  9
$CAMERADISPLAY
290
    0
  9
$LENSLENGTH
 40
50
  9
$CAMERAHEIGHT
 40
0
  9
$STEPSPERSEC
 40
2
  9
$STEPSIZE
 40
50
  9
$3DDWFPREC
 40
2
  9
$PSOLWIDTH
 40
5
  9
$PSOLHEIGHT
 40
80
  9
$LOFTANG1
 40
1.570796326794897
  9
$LOFTANG2
 40
1.570796326794897
  9
$LOFTMAG1
 40
0
  9
$LOFTMAG2
 40
0
  9
$LOFTPARAM
 70
    7
  9
$LOFTNORMALS
280
    1
  9
$LATITUDE
 40
1
  9
$LONGITUDE
 40
1
  9
$NORTHDIRECTION
 40
0
  9
$TIMEZONE
 70
-8000
  9
$LIGHTGLYPHDISPLAY
280
    1
  9
$TILEMODELIGHTSYNCH
280
    1
  9
$SOLIDHIST
280
    1
  9
$SHOWHIST
280
    1
  9
$DWFFRAME
280
    2
  9
$DGNFRAME
280
    0
  9
$REALWORLDSCALE
290
    1
  9
$INTERFERECOLOR
 62
    1
  9
$CSHADOW
280
    0
  9
$SHADOWPLANELOCATION
 40
0
  0
ENDSEC
  0
SECTION
  2
CLASSES
  0
ENDSEC
  0
SECTION
  2
TABLES
  0
TABLE
  2
VPORT
  5
8
330
0
100
AcDbSymbolTable
 70
    1
  0
VPORT
  5
31
330
2
100
AcDbSymbolTableRecord
100
AcDbViewportTableRecord
  2
*ACTIVE
 70
    0
 10
0
 20
0
 11
1
 21
1
 12
-1000.019888214734
 22
-199.3005638880479
 13
0
 23
0
 14
10
 24
10
 15
10
 25
10
 16
0
 26
0
 36
1
 17
0
 27
0
 37
0
 40
1144.219707969028
 41
1.547131147540984
 42
50
 43
0
 44
0
 50
0
 51
0
 71
    0
 72
  100
 73
    1
 74
    3
 75
    0
 76
    1
 77
    0
 78
    0
281
    0
 65
    1
110
0
120
0
130
0
111
1
121
0
131
0
112
0
122
1
132
0
 79
    0
146
0
348
10020
 60
    7
 61
    5
292
1
282
    1
141
0
142
0
 63
  250
421
3358443
  0
ENDTAB
  0
TABLE
  2
LTYPE
  5
5
330
0
100
AcDbSymbolTable
 70
    4
  0
LTYPE
  5
14
330
5
100
AcDbSymbolTableRecord
100
AcDbLinetypeTableRecord
  2
ByBlock
 70
    0
  3

 72
   65
 73
    0
 40
0
  0
LTYPE
  5
15
330
5
100
AcDbSymbolTableRecord
100
AcDbLinetypeTableRecord
  2
ByLayer
 70
    0
  3

 72
   65
 73
    0
 40
0
  0
LTYPE
  5
16
330
5
100
AcDbSymbolTableRecord
100
AcDbLinetypeTableRecord
  2
Continuous
 70
    0
  3
Solid line
 72
   65
 73
    0
 40
0
  0
LTYPE
  5
32
330
5
100
AcDbSymbolTableRecord
100
AcDbLinetypeTableRecord
  2
DOT
 70
    0
  3
Dot . . . . . . . . . . . . . . . . . . . . . .
 72
   65
 73
    2
 40
6.35
 49
0
 74
    0
 49
-6.35
 74
    0
  0
LTYPE
  5
33
330
5
100
AcDbSymbolTableRecord
100
AcDbLinetypeTableRecord
  2
DOTTINY
 70
    0
  3
Dot (.15x) .....................................
 72
   65
 73
    2
 40
0.9525
 49
0
 74
    0
 49
-0.9525
 74
    0
  0
LTYPE
  5
34
330
5
100
AcDbSymbolTableRecord
100
AcDbLinetypeTableRecord
  2
DOT2
 70
    0
  3
Dot (.5x) .....................................
 72
   65
 73
    2
 40
3.175
 49
0
 74
    0
 49
-3.175
 74
    0
  0
LTYPE
  5
35
330
5
100
AcDbSymbolTableRecord
100
AcDbLinetypeTableRecord
  2
DOTX2
 70
    0
  3
Dot (2x) .  .  .  .  .  .  .  .  .  .  .  .  .
 72
   65
 73
    2
 40
12.7
 49
0
 74
    0
 49
-12.7
 74
    0
  0
LTYPE
  5
36
330
5
100
AcDbSymbolTableRecord
100
AcDbLinetypeTableRecord
  2
DASHED
 70
    0
  3
Dashed _ _ _ _ _ _ _ _ _ _ _ _ _ _ _ _ _
 72
   65
 73
    2
 40
19.05
 49
12.7
 74
    0
 49
-6.35
 74
    0
  0
LTYPE
  5
37
330
5
100
AcDbSymbolTableRecord
100
AcDbLinetypeTableRecord
  2
DASHEDTINY
 70
    0
  3
Dashed (.15x) _ _ _ _ _ _ _ _ _ _ _ _ _ _ _ _ _
 72
   65
 73
    2
 40
2.8575
 49
1.905
 74
    0
 49
-0.9525
 74
    0
  0
LTYPE
  5
38
330
5
100
AcDbSymbolTableRecord
100
AcDbLinetypeTableRecord
  2
DASHED2
 70
    0
  3
Dashed (.5x) _ _ _ _ _ _ _ _ _ _ _ _ _ _ _ _ _
 72
   65
 73
    2
 40
9.524999999999999
 49
6.35
 74
    0
 49
-3.175
 74
    0
  0
LTYPE
  5
39
330
5
100
AcDbSymbolTableRecord
100
AcDbLinetypeTableRecord
  2
DASHEDX2
 70
    0
  3
Dashed (2x) ____  ____  ____  ____  ____  ___
 72
   65
 73
    2
 40
38.09999999999999
 49
25.4
 74
    0
 49
-12.7
 74
    0
  0
LTYPE
  5
3A
330
5
100
AcDbSymbolTableRecord
100
AcDbLinetypeTableRecord
  2
DASHDOT
 70
    0
  3
Dash dot __ . __ . __ . __ . __ . __ . __ . __
 72
   65
 73
    4
 40
25.4
 49
12.7
 74
    0
 49
-6.35
 74
    0
 49
0
 74
    0
 49
-6.35
 74
    0
  0
LTYPE
  5
3B
330
5
100
AcDbSymbolTableRecord
100
AcDbLinetypeTableRecord
  2
DASHDOTTINY
 70
    0
  3
Dash dot (.15x) _._._._._._._._._._._._._._._.
 72
   65
 73
    4
 40
3.81
 49
1.905
 74
    0
 49
-0.9525
 74
    0
 49
0
 74
    0
 49
-0.9525
 74
    0
  0
LTYPE
  5
3C
330
5
100
AcDbSymbolTableRecord
100
AcDbLinetypeTableRecord
  2
DASHDOT2
 70
    0
  3
Dash dot (.5x) _._._._._._._._._._._._._._._.
 72
   65
 73
    4
 40
12.7
 49
6.35
 74
    0
 49
-3.175
 74
    0
 49
0
 74
    0
 49
-3.175
 74
    0
  0
LTYPE
  5
3D
330
5
100
AcDbSymbolTableRecord
100
AcDbLinetypeTableRecord
  2
DASHDOTX2
 70
    0
  3
Dash dot (2x) ____  .  ____  .  ____  .  ___
 72
   65
 73
    4
 40
50.8
 49
25.4
 74
    0
 49
-12.7
 74
    0
 49
0
 74
    0
 49
-12.7
 74
    0
  0
LTYPE
  5
3E
330
5
100
AcDbSymbolTableRecord
100
AcDbLinetypeTableRecord
  2
DIVIDE
 70
    0
  3
Divide ____ . . ____ . . ____ . . ____ . . ____
 72
   65
 73
    6
 40
31.75
 49
12.7
 74
    0
 49
-6.35
 74
    0
 49
0
 74
    0
 49
-6.35
 74
    0
 49
0
 74
    0
 49
-6.35
 74
    0
  0
LTYPE
  5
3F
330
5
100
AcDbSymbolTableRecord
100
AcDbLinetypeTableRecord
  2
DIVIDETINY
 70
    0
  3
Divide (.15x) __..__..__..__..__..__..__..__.._
 72
   65
 73
    6
 40
4.7625
 49
1.905
 74
    0
 49
-0.9525
 74
    0
 49
0
 74
    0
 49
-0.9525
 74
    0
 49
0
 74
    0
 49
-0.9525
 74
    0
  0
LTYPE
  5
40
330
5
100
AcDbSymbolTableRecord
100
AcDbLinetypeTableRecord
  2
DIVIDE2
 70
    0
  3
Divide (.5x) __..__..__..__..__..__..__..__.._
 72
   65
 73
    6
 40
15.875
 49
6.35
 74
    0
 49
-3.175
 74
    0
 49
0
 74
    0
 49
-3.175
 74
    0
 49
0
 74
    0
 49
-3.175
 74
    0
  0
LTYPE
  5
41
330
5
100
AcDbSymbolTableRecord
100
AcDbLinetypeTableRecord
  2
DIVIDEX2
 70
    0
  3
Divide (2x) ________  .  .  ________  .  .  _
 72
   65
 73
    6
 40
63.5
 49
25.4
 74
    0
 49
-12.7
 74
    0
 49
0
 74
    0
 49
-12.7
 74
    0
 49
0
 74
    0
 49
-12.7
 74
    0
  0
LTYPE
  5
42
330
5
100
AcDbSymbolTableRecord
100
AcDbLinetypeTableRecord
  2
BORDER
 70
    0
  3
Border __ __ . __ __ . __ __ . __ __ . __ __ .
 72
   65
 73
    6
 40
44.45
 49
12.7
 74
    0
 49
-6.35
 74
    0
 49
12.7
 74
    0
 49
-6.35
 74
    0
 49
0
 74
    0
 49
-6.35
 74
    0
  0
LTYPE
  5
43
330
5
100
AcDbSymbolTableRecord
100
AcDbLinetypeTableRecord
  2
BORDERTINY
 70
    0
  3
Border (.15x) __.__.__.__.__.__.__.__.__.__.__.
 72
   65
 73
    6
 40
6.6675
 49
1.905
 74
    0
 49
-0.9525
 74
    0
 49
1.905
 74
    0
 49
-0.9525
 74
    0
 49
0
 74
    0
 49
-0.9525
 74
    0
  0
LTYPE
  5
44
330
5
100
AcDbSymbolTableRecord
100
AcDbLinetypeTableRecord
  2
BORDER2
 70
    0
  3
Border (.5x) __.__.__.__.__.__.__.__.__.__.__.
 72
   65
 73
    6
 40
22.225
 49
6.35
 74
    0
 49
-3.175
 74
    0
 49
6.35
 74
    0
 49
-3.175
 74
    0
 49
0
 74
    0
 49
-3.175
 74
    0
  0
LTYPE
  5
45
330
5
100
AcDbSymbolTableRecord
100
AcDbLinetypeTableRecord
  2
BORDERX2
 70
    0
  3
Border (2x) ____  ____  .  ____  ____  .  ___
 72
   65
 73
    6
 40
88.89999999999999
 49
25.4
 74
    0
 49
-12.7
 74
    0
 49
25.4
 74
    0
 49
-12.7
 74
    0
 49
0
 74
    0
 49
-12.7
 74
    0
  0
LTYPE
  5
46
330
5
100
AcDbSymbolTableRecord
100
AcDbLinetypeTableRecord
  2
CENTER
 70
    0
  3
Center ____ _ ____ _ ____ _ ____ _ ____ _ ____
 72
   65
 73
    4
 40
50.8
 49
31.75
 74
    0
 49
-6.35
 74
    0
 49
6.35
 74
    0
 49
-6.35
 74
    0
  0
LTYPE
  5
47
330
5
100
AcDbSymbolTableRecord
100
AcDbLinetypeTableRecord
  2
CENTERTINY
 70
    0
  3
Center (.15x) ___ _ ___ _ ___ _ ___ _ ___ _ ___
 72
   65
 73
    4
 40
7.619999999999999
 49
4.7625
 74
    0
 49
-0.9525
 74
    0
 49
0.9525
 74
    0
 49
-0.9525
 74
    0
  0
LTYPE
  5
48
330
5
100
AcDbSymbolTableRecord
100
AcDbLinetypeTableRecord
  2
CENTER2
 70
    0
  3
Center (.5x) ___ _ ___ _ ___ _ ___ _ ___ _ ___
 72
   65
 73
    4
 40
28.575
 49
19.05
 74
    0
 49
-3.175
 74
    0
 49
3.175
 74
    0
 49
-3.175
 74
    0
  0
LTYPE
  5
49
330
5
100
AcDbSymbolTableRecord
100
AcDbLinetypeTableRecord
  2
CENTERX2
 70
    0
  3
Center (2x) ________  __  ________  __  _____
 72
   65
 73
    4
 40
101.6
 49
63.5
 74
    0
 49
-12.7
 74
    0
 49
12.7
 74
    0
 49
-12.7
 74
    0
  0
ENDTAB
  0
TABLE
  2
LAYER
  5
2
330
0
100
AcDbSymbolTable
 70
    1
  0
LAYER
  5
10
330
2
100
AcDbSymbolTableRecord
100
AcDbLayerTableRecord
  2
0
 70
    1
 62
    7
  6
CONTINUOUS
370
   -3
390
F
  0
LAYER
  5
4A
330
2
100
AcDbSymbolTableRecord
100
AcDbLayerTableRecord
  2
Driver
 70
    1
 62
    5
  6
CONTINUOUS
370
    0
390
F
  0
LAYER
  5
4B
330
2
100
AcDbSymbolTableRecord
100
AcDbLayerTableRecord
  2
annotations
 70
    1
 62
    7
  6
CONTINUOUS
370
    0
390
F
  0
LAYER
  5
4C
330
2
100
AcDbSymbolTableRecord
100
AcDbLayerTableRecord
  2
centerOfmass
 70
    1
 62
    2
  6
CONTINUOUS
370
    0
390
F
  0
LAYER
  5
4D
330
2
100
AcDbSymbolTableRecord
100
AcDbLayerTableRecord
  2
dimension
 70
    1
 62
    7
  6
CONTINUOUS
370
   -3
390
F
  0
LAYER
  5
4E
330
2
100
AcDbSymbolTableRecord
100
AcDbLayerTableRecord
  2
dimensionFromMid
 70
    1
 62
    7
  6
CONTINUOUS
370
    0
390
F
  0
LAYER
  5
4F
330
2
100
AcDbSymbolTableRecord
100
AcDbLayerTableRecord
  2
frame
 70
    0
 62
    1
  6
CONTINUOUS
370
    0
390
F
  0
LAYER
  5
50
330
2
100
AcDbSymbolTableRecord
100
AcDbLayerTableRecord
  2
frame_rr10
 70
    0
 62
    5
  6
CONTINUOUS
370
    0
390
F
  0
LAYER
  5
51
330
2
100
AcDbSymbolTableRecord
100
AcDbLayerTableRecord
  2
internals
 70
    1
 62
    6
  6
CONTINUOUS
370
    0
390
F
  0
LAYER
  5
52
330
2
100
AcDbSymbolTableRecord
100
AcDbLayerTableRecord
  2
rollbarClearance
 70
    1
 62
    3
  6
CONTINUOUS
370
    0
390
F
  0
ENDTAB
  0
TABLE
  2
STYLE
  5
3
330
0
100
AcDbSymbolTable
 70
    3
  0
STYLE
  5
53
330
2
100
AcDbSymbolTableRecord
100
AcDbTextStyleTableRecord
  2
iso
 70
    0
 40
0
 41
1
 50
0
 71
    0
 42
1
  3
iso
  4

  0
STYLE
  5
54
330
2
100
AcDbSymbolTableRecord
100
AcDbTextStyleTableRecord
  2
Standard
 70
    0
 40
0
 41
1
 50
0
 71
    0
 42
1
  3
txt
  4

  0
ENDTAB
  0
TABLE
  2
VIEW
  5
6
330
0
100
AcDbSymbolTable
 70
    0
  0
ENDTAB
  0
TABLE
  2
UCS
  5
7
330
0
100
AcDbSymbolTable
 70
    0
  0
ENDTAB
  0
TABLE
  2
APPID
  5
9
330
0
100
AcDbSymbolTable
 70
    1
  0
APPID
  5
12
330
9
100
AcDbSymbolTableRecord
100
AcDbRegAppTableRecord
  2
ACAD
 70
    0
  0
APPID
  5
55
330
9
100
AcDbSymbolTableRecord
100
AcDbRegAppTableRecord
  2
LibreCad
 70
    0
  0
ENDTAB
  0
TABLE
  2
DIMSTYLE
  5
A
330
0
100
AcDbSymbolTable
 70
    1
100
AcDbDimStyleTable
 71
    1
  0
DIMSTYLE
105
56
330
A
100
AcDbSymbolTableRecord
100
AcDbDimStyleTableRecord
  2
Standard
 70
    0
 40
1
 41
0.1875
 42
0.1375
 43
0.38
 44
0.396
 45
0
 46
0
 47
0
 48
0
140
10
141
0.09
142
0
143
25.4
144
1
145
0
146
1
147
0.625
148
0
 71
    0
 72
    0
 73
    0
 74
    1
 75
    0
 76
    0
 77
    0
 78
    1
 79
    0
170
    0
171
    2
172
    0
173
    0
174
    0
175
    0
176
    0
177
    0
178
    0
179
    0
271
    2
272
    4
273
    2
274
    2
275
    0
276
    0
277
    2
278
    0
279
    0
280
    0
281
    0
282
    0
283
    1
284
    0
285
    0
286
    0
288
    0
289
    3
340
standard
341

371
   -2
372
   -2
  0
ENDTAB
  0
TABLE
  2
BLOCK_RECORD
  5
1
330
0
100
AcDbSymbolTable
 70
    2
  0
BLOCK_RECORD
  5
1F
330
1
100
AcDbSymbolTableRecord
100
AcDbBlockTableRecord
  2
*Model_Space
 70
    0
280
    1
281
    0
  0
BLOCK_RECORD
  5
1E
330
1
100
AcDbSymbolTableRecord
100
AcDbBlockTableRecord
  2
*Paper_Space
 70
    0
280
    1
281
    0
  0
BLOCK_RECORD
  5
57
330
1
100
AcDbSymbolTableRecord
100
AcDbBlockTableRecord
  2
*D29
 70
    0
280
    1
281
    0
  0
BLOCK_RECORD
  5
5A
330
1
100
AcDbSymbolTableRecord
100
AcDbBlockTableRecord
  2
*D2
 70
    0
280
    1
281
    0
  0
BLOCK_RECORD
  5
5D
330
1
100
AcDbSymbolTableRecord
100
AcDbBlockTableRecord
  2
*D15
 70
    0
280
    1
281
    0
  0
BLOCK_RECORD
  5
60
330
1
100
AcDbSymbolTableRecord
100
AcDbBlockTableRecord
  2
*D9
 70
    0
280
    1
281
    0
  0
BLOCK_RECORD
  5
63
330
1
100
AcDbSymbolTableRecord
100
AcDbBlockTableRecord
  2
*D17
 70
    0
280
    1
281
    0
  0
BLOCK_RECORD
  5
66
330
1
100
AcDbSymbolTableRecord
100
AcDbBlockTableRecord
  2
*D13
 70
    0
280
    1
281
    0
  0
BLOCK_RECORD
  5
69
330
1
100
AcDbSymbolTableRecord
100
AcDbBlockTableRecord
  2
*D23
 70
    0
280
    1
281
    0
  0
BLOCK_RECORD
  5
6C
330
1
100
AcDbSymbolTableRecord
100
AcDbBlockTableRecord
  2
*D12
 70
    0
280
    1
281
    0
  0
BLOCK_RECORD
  5
6F
330
1
100
AcDbSymbolTableRecord
100
AcDbBlockTableRecord
  2
*D5
 70
    0
280
    1
281
    0
  0
BLOCK_RECORD
  5
72
330
1
100
AcDbSymbolTableRecord
100
AcDbBlockTableRecord
  2
*D16
 70
    0
280
    1
281
    0
  0
BLOCK_RECORD
  5
75
330
1
100
AcDbSymbolTableRecord
100
AcDbBlockTableRecord
  2
*D22
 70
    0
280
    1
281
    0
  0
BLOCK_RECORD
  5
78
330
1
100
AcDbSymbolTableRecord
100
AcDbBlockTableRecord
  2
*D19
 70
    0
280
    1
281
    0
  0
BLOCK_RECORD
  5
7B
330
1
100
AcDbSymbolTableRecord
100
AcDbBlockTableRecord
  2
*D18
 70
    0
280
    1
281
    0
  0
BLOCK_RECORD
  5
7E
330
1
100
AcDbSymbolTableRecord
100
AcDbBlockTableRecord
  2
*D1
 70
    0
280
    1
281
    0
  0
BLOCK_RECORD
  5
81
330
1
100
AcDbSymbolTableRecord
100
AcDbBlockTableRecord
  2
*D30
 70
    0
280
    1
281
    0
  0
BLOCK_RECORD
  5
84
330
1
100
AcDbSymbolTableRecord
100
AcDbBlockTableRecord
  2
*D7
 70
    0
280
    1
281
    0
  0
BLOCK_RECORD
  5
87
330
1
100
AcDbSymbolTableRecord
100
AcDbBlockTableRecord
  2
*D21
 70
    0
280
    1
281
    0
  0
BLOCK_RECORD
  5
8A
330
1
100
AcDbSymbolTableRecord
100
AcDbBlockTableRecord
  2
*D24
 70
    0
280
    1
281
    0
  0
BLOCK_RECORD
  5
8D
330
1
100
AcDbSymbolTableRecord
100
AcDbBlockTableRecord
  2
*D26
 70
    0
280
    1
281
    0
  0
BLOCK_RECORD
  5
90
330
1
100
AcDbSymbolTableRecord
100
AcDbBlockTableRecord
  2
*D20
 70
    0
280
    1
281
    0
  0
BLOCK_RECORD
  5
93
330
1
100
AcDbSymbolTableRecord
100
AcDbBlockTableRecord
  2
*D4
 70
    0
280
    1
281
    0
  0
BLOCK_RECORD
  5
96
330
1
100
AcDbSymbolTableRecord
100
AcDbBlockTableRecord
  2
*D14
 70
    0
280
    1
281
    0
  0
BLOCK_RECORD
  5
99
330
1
100
AcDbSymbolTableRecord
100
AcDbBlockTableRecord
  2
*D28
 70
    0
280
    1
281
    0
  0
BLOCK_RECORD
  5
9C
330
1
100
AcDbSymbolTableRecord
100
AcDbBlockTableRecord
  2
*D3
 70
    0
280
    1
281
    0
  0
BLOCK_RECORD
  5
9F
330
1
100
AcDbSymbolTableRecord
100
AcDbBlockTableRecord
  2
*D8
 70
    0
280
    1
281
    0
  0
BLOCK_RECORD
  5
A2
330
1
100
AcDbSymbolTableRecord
100
AcDbBlockTableRecord
  2
*D31
 70
    0
280
    1
281
    0
  0
BLOCK_RECORD
  5
A5
330
1
100
AcDbSymbolTableRecord
100
AcDbBlockTableRecord
  2
*D11
 70
    0
280
    1
281
    0
  0
BLOCK_RECORD
  5
A8
330
1
100
AcDbSymbolTableRecord
100
AcDbBlockTableRecord
  2
*D25
 70
    0
280
    1
281
    0
  0
BLOCK_RECORD
  5
AB
330
1
100
AcDbSymbolTableRecord
100
AcDbBlockTableRecord
  2
*D10
 70
    0
280
    1
281
    0
  0
BLOCK_RECORD
  5
AE
330
1
100
AcDbSymbolTableRecord
100
AcDbBlockTableRecord
  2
*D33
 70
    0
280
    1
281
    0
  0
BLOCK_RECORD
  5
B1
330
1
100
AcDbSymbolTableRecord
100
AcDbBlockTableRecord
  2
*D32
 70
    0
280
    1
281
    0
  0
BLOCK_RECORD
  5
B4
330
1
100
AcDbSymbolTableRecord
100
AcDbBlockTableRecord
  2
*D6
 70
    0
280
    1
281
    0
  0
BLOCK_RECORD
  5
B7
330
1
100
AcDbSymbolTableRecord
100
AcDbBlockTableRecord
  2
*D27
 70
    0
280
    1
281
    0
  0
BLOCK_RECORD
  5
BA
330
1
100
AcDbSymbolTableRecord
100
AcDbBlockTableRecord
  2
SYMBOL_5_BL0
 70
    0
280
    1
281
    0
  0
BLOCK_RECORD
  5
BD
330
1
100
AcDbSymbolTableRecord
100
AcDbBlockTableRecord
  2
*T1
 70
    0
280
    1
281
    0
  0
BLOCK_RECORD
  5
C0
330
1
100
AcDbSymbolTableRecord
100
AcDbBlockTableRecord
  2
*T2
 70
    0
280
    1
281
    0
  0
BLOCK_RECORD
  5
C3
330
1
100
AcDbSymbolTableRecord
100
AcDbBlockTableRecord
  2
*T3
 70
    0
280
    1
281
    0
  0
BLOCK_RECORD
  5
C6
330
1
100
AcDbSymbolTableRecord
100
AcDbBlockTableRecord
  2
batteryT
 70
    0
280
    1
281
    0
  0
BLOCK_RECORD
  5
C9
330
1
100
AcDbSymbolTableRecord
100
AcDbBlockTableRecord
  2
batteryS
 70
    0
280
    1
281
    0
  0
ENDTAB
  0
ENDSEC
  0
SECTION
  2
BLOCKS
  0
BLOCK
  5
20
330
1F
100
AcDbEntity
  8
0
100
AcDbBlockBegin
  2
*Model_Space
 70
    0
 10
0
 20
0
 30
0
  3
*Model_Space
  1

  0
ENDBLK
  5
21
330
1F
100
AcDbEntity
  8
0
100
AcDbBlockEnd
  0
BLOCK
  5
1C
330
1B
100
AcDbEntity
  8
0
100
AcDbBlockBegin
  2
*Paper_Space
 70
    0
 10
0
 20
0
 30
0
  3
*Paper_Space
  1

  0
ENDBLK
  5
1D
330
1F
100
AcDbEntity
  8
0
100
AcDbBlockEnd
  0
BLOCK
  5
58
330
57
100
AcDbEntity
  8
0
100
AcDbBlockBegin
  2
*D29
 70
    1
 10
0
 20
0
  3
*D29
  1

  0
LINE
  5
CC
100
AcDbEntity
  8
frame
  6
ByBlock
 62
    0
370
   -2
100
AcDbLine
 10
-1799.453106884009
 20
-1054.052138682964
 11
-1790.850543039006
 21
-1030.339943469175
  0
LINE
  5
CD
100
AcDbEntity
  8
frame
  6
ByBlock
 62
    0
370
   -2
100
AcDbLine
 10
-1411.579501046497
 20
-1194.769074754247
 11
-1402.976937201494
 21
-1171.056879540459
  0
LINE
  5
CE
100
AcDbEntity
  8
frame
  6
ByBlock
 62
    0
370
   -2
100
AcDbLine
 10
-1790.985595213061
 20
-1030.71220266689
 11
-1403.111989375549
 21
-1171.429138738173
  0
SOLID
  5
CF
100
AcDbEntity
  8
frame
  6
ByBlock
 62
    0
370
   -2
100
AcDbTrace
 10
-1790.985595213061
 20
-1030.71220266689
 30
0
 11
-1790.79868836792
 21
-1030.746798243104
 31
0
 12
-1790.819983878548
 22
-1030.805497407015
 32
0
 13
-1790.819983878548
 23
-1030.805497407015
 33
0
  0
SOLID
  5
D0
100
AcDbEntity
  8
frame
  6
ByBlock
 62
    0
370
   -2
100
AcDbTrace
 10
-1403.111989375549
 20
-1171.429138738173
 30
0
 11
-1403.29889622069
 21
-1171.394543161959
 31
0
 12
-1403.277600710062
 22
-1171.335843998048
 32
0
 13
-1403.277600710062
 23
-1171.335843998048
 33
0
  0
MTEXT
  5
D1
100
AcDbEntity
  8
frame
  6
CONTINUOUS
 62
    0
370
   -2
100
AcDbMText
 10
-1595.130437549211
 20
-1095.782898007722
 30
0
 40
10
 41
35.55555555555618
 71
    5
 72
    1
  1
412.61
  7
standard
210
0
220
0
230
1
 50
340.0596994316696
 73
    2
 44
1
  0
ENDBLK
  5
59
330
57
100
AcDbEntity
  8
0
100
AcDbBlockEnd
  0
BLOCK
  5
5B
330
5A
100
AcDbEntity
  8
0
100
AcDbBlockBegin
  2
*D2
 70
    1
 10
0
 20
0
  3
*D2
  1

  0
LINE
  5
D2
100
AcDbEntity
  8
dimension
  6
ByBlock
 62
    0
370
   -2
100
AcDbLine
 10
-1009.652829808875
 20
-797.3152432421293
 11
-1009.652829808875
 21
-797.0567432421294
  0
LINE
  5
D3
100
AcDbEntity
  8
dimension
  6
ByBlock
 62
    0
370
   -2
100
AcDbLine
 10
-879.8895282675038
 20
-265.0400265050843
 11
-989.4732280862025
 21
-799.1057021564194
  0
ARC
  5
D4
100
AcDbEntity
  8
dimension
  6
ByBlock
 62
    0
370
   -2
100
AcDbCircle
 10
-1009.652829808875
 20
-897.4527432421297
 40
100.0000000000003
100
AcDbArc
 50
90
 51
78.40455427032582
  0
SOLID
  5
D5
100
AcDbEntity
  8
dimension
  6
ByBlock
 62
    0
370
   -2
100
AcDbTrace
 10
-1009.652829808875
 20
-797.4527432421294
 30
0
 11
-1009.840300456466
 21
-797.4841403589663
 31
0
 12
-1009.840358996488
 22
-797.421697687741
 32
0
 13
-1009.840358996488
 23
-797.421697687741
 33
0
  0
SOLID
  5
D6
100
AcDbEntity
  8
dimension
  6
ByBlock
 62
    0
370
   -2
100
AcDbTrace
 10
-989.5528241087749
 20
-799.4936202833362
 30
0
 11
-989.3628820030955
 21
-799.5009017079393
 31
0
 12
-989.3754903288626
 22
-799.562058234476
 32
0
 13
-989.3754903288626
 23
-799.562058234476
 33
0
  0
MTEXT
  5
D7
100
AcDbEntity
  8
dimension
  6
CONTINUOUS
 62
    0
370
   -2
100
AcDbMText
 10
-1019.691370041277
 20
-996.3194127268581
 30
0
 40
10
 41
27.7777777777784
 71
    8
 72
    1
  1
348%%D
  7
standard
210
0
220
0
230
1
 50
-5.797722864837099
 73
    2
 44
1
  0
ENDBLK
  5
5C
330
5A
100
AcDbEntity
  8
0
100
AcDbBlockEnd
  0
BLOCK
  5
5E
330
5D
100
AcDbEntity
  8
0
100
AcDbBlockBegin
  2
*D15
 70
    1
 10
0
 20
0
  3
*D15
  1

  0
LINE
  5
D8
100
AcDbEntity
  8
dimensionFromMid
  6
ByBlock
 62
    0
370
   -2
100
AcDbLine
 10
-1867.500000010455
 20
-1231.322830356963
 11
-992
 21
-1231.322830356963
  0
SOLID
  5
D9
100
AcDbEntity
  8
dimensionFromMid
  6
ByBlock
 62
    0
370
   -2
100
AcDbTrace
 10
-1867.500000010455
 20
-1231.322830356963
 30
0
 11
-1867.312500010455
 21
-1231.29160900763
 31
0
 12
-1867.312500010455
 22
-1231.354051706296
 32
0
 13
-1867.312500010455
 23
-1231.354051706296
 33
0
  0
SOLID
  5
DA
100
AcDbEntity
  8
dimensionFromMid
  6
ByBlock
 62
    0
370
   -2
100
AcDbTrace
 10
-992
 20
-1231.322830356963
 30
0
 11
-992.1875
 21
-1231.354051706296
 31
0
 12
-992.1875
 22
-1231.29160900763
 32
0
 13
-992.1875
 23
-1231.29160900763
 33
0
  0
MTEXT
  5
DB
100
AcDbEntity
  8
dimensionFromMid
  6
CONTINUOUS
 62
    0
370
   -2
100
AcDbMText
 10
-1429.750000005227
 20
-1225.697830356963
 30
0
 40
10
 41
38.88888888889013
 71
    5
 72
    1
  1
875.50
  7
standard
210
0
220
0
230
1
 50
0
 73
    2
 44
1
  0
LINE
  5
DC
100
AcDbEntity
  8
dimensionFromMid
  6
ByBlock
 62
    0
370
   -2
100
AcDbLine
 10
-1867.500000010455
 20
-958.1307793310428
 11
-1867.500000010455
 21
-1231.718830356963
  0
LINE
  5
DD
100
AcDbEntity
  8
dimensionFromMid
  6
ByBlock
 62
    0
370
   -2
100
AcDbLine
 10
-992
 20
-759.67317913
 11
-992
 21
-1231.718830356963
  0
ENDBLK
  5
5F
330
5D
100
AcDbEntity
  8
0
100
AcDbBlockEnd
  0
BLOCK
  5
61
330
60
100
AcDbEntity
  8
0
100
AcDbBlockBegin
  2
*D9
 70
    1
 10
0
 20
0
  3
*D9
  1

  0
LINE
  5
DE
100
AcDbEntity
  8
dimensionFromMid
  6
ByBlock
 62
    0
370
   -2
100
AcDbLine
 10
-1867.500000010455
 20
-1099.749487657228
 11
-2107.402994822291
 21
-1099.749487657228
  0
SOLID
  5
DF
100
AcDbEntity
  8
dimensionFromMid
  6
ByBlock
 62
    0
370
   -2
100
AcDbTrace
 10
-1867.500000010455
 20
-1099.749487657228
 30
0
 11
-1867.687500010455
 21
-1099.780709006561
 31
0
 12
-1867.687500010455
 22
-1099.718266307895
 32
0
 13
-1867.687500010455
 23
-1099.718266307895
 33
0
  0
SOLID
  5
E0
100
AcDbEntity
  8
dimensionFromMid
  6
ByBlock
 62
    0
370
   -2
100
AcDbTrace
 10
-2107.402994822291
 20
-1099.749487657228
 30
0
 11
-2107.215494822291
 21
-1099.718266307895
 31
0
 12
-2107.215494822291
 22
-1099.780709006561
 32
0
 13
-2107.215494822291
 23
-1099.780709006561
 33
0
  0
MTEXT
  5
E1
100
AcDbEntity
  8
dimensionFromMid
  6
CONTINUOUS
 62
    0
370
   -2
100
AcDbMText
 10
-1987.451497416373
 20
-1094.124487657228
 30
0
 40
10
 41
38.88888888888951
 71
    5
 72
    1
  1
239.90
  7
standard
210
0
220
0
230
1
 50
360
 73
    2
 44
1
  0
LINE
  5
E2
100
AcDbEntity
  8
dimensionFromMid
  6
ByBlock
 62
    0
370
   -2
100
AcDbLine
 10
-1867.500000010455
 20
-961.6473420400005
 11
-1867.500000010455
 21
-1100.145487657228
  0
LINE
  5
E3
100
AcDbEntity
  8
dimensionFromMid
  6
ByBlock
 62
    0
370
   -2
100
AcDbLine
 10
-2107.402994822291
 20
-835.3676291786223
 11
-2107.402994822291
 21
-1100.145487657228
  0
ENDBLK
  5
62
330
60
100
AcDbEntity
  8
0
100
AcDbBlockEnd
  0
BLOCK
  5
64
330
63
100
AcDbEntity
  8
0
100
AcDbBlockBegin
  2
*D17
 70
    1
 10
0
 20
0
  3
*D17
  1

  0
LINE
  5
E4
100
AcDbEntity
  8
dimensionFromMid
  6
ByBlock
 62
    0
370
   -2
100
AcDbLine
 10
-1867.500000010455
 20
-154.9202418498633
 11
-620.7331509199998
 21
-154.9202418498633
  0
SOLID
  5
E5
100
AcDbEntity
  8
dimensionFromMid
  6
ByBlock
 62
    0
370
   -2
100
AcDbTrace
 10
-1867.500000010455
 20
-154.9202418498633
 30
0
 11
-1867.312500010455
 21
-154.8890205005303
 31
0
 12
-1867.312500010455
 22
-154.9514631991962
 32
0
 13
-1867.312500010455
 23
-154.9514631991962
 33
0
  0
SOLID
  5
E6
100
AcDbEntity
  8
dimensionFromMid
  6
ByBlock
 62
    0
370
   -2
100
AcDbTrace
 10
-620.7331509199998
 20
-154.9202418498633
 30
0
 11
-620.9206509199998
 21
-154.9514631991962
 31
0
 12
-620.9206509199998
 22
-154.8890205005303
 32
0
 13
-620.9206509199998
 23
-154.8890205005303
 33
0
  0
MTEXT
  5
E7
100
AcDbEntity
  8
dimensionFromMid
  6
CONTINUOUS
 62
    0
370
   -2
100
AcDbMText
 10
-1244.116575465227
 20
-149.2952418498633
 30
0
 40
10
 41
45.55555555555617
 71
    5
 72
    1
  1
1246.77
  7
standard
210
0
220
0
230
1
 50
0
 73
    2
 44
1
  0
LINE
  5
E8
100
AcDbEntity
  8
dimensionFromMid
  6
ByBlock
 62
    0
370
   -2
100
AcDbLine
 10
-1867.500000010455
 20
-416.472339569227
 11
-1867.500000010455
 21
-154.5242418498633
  0
LINE
  5
E9
100
AcDbEntity
  8
dimensionFromMid
  6
ByBlock
 62
    0
370
   -2
100
AcDbLine
 10
-620.7331509199998
 20
-678.4239842575801
 11
-620.7331509199998
 21
-154.5242418498633
  0
ENDBLK
  5
65
330
63
100
AcDbEntity
  8
0
100
AcDbBlockEnd
  0
BLOCK
  5
67
330
66
100
AcDbEntity
  8
0
100
AcDbBlockBegin
  2
*D13
 70
    1
 10
0
 20
0
  3
*D13
  1

  0
LINE
  5
EA
100
AcDbEntity
  8
dimensionFromMid
  6
ByBlock
 62
    0
370
   -2
100
AcDbLine
 10
-1293.220067303552
 20
-1099.74948765723
 11
-1867.500000010455
 21
-1099.74948765723
  0
SOLID
  5
EB
100
AcDbEntity
  8
dimensionFromMid
  6
ByBlock
 62
    0
370
   -2
100
AcDbTrace
 10
-1293.220067303552
 20
-1099.74948765723
 30
0
 11
-1293.407567303552
 21
-1099.780709006563
 31
0
 12
-1293.407567303552
 22
-1099.718266307897
 32
0
 13
-1293.407567303552
 23
-1099.718266307897
 33
0
  0
SOLID
  5
EC
100
AcDbEntity
  8
dimensionFromMid
  6
ByBlock
 62
    0
370
   -2
100
AcDbTrace
 10
-1867.500000010455
 20
-1099.74948765723
 30
0
 11
-1867.312500010455
 21
-1099.718266307897
 31
0
 12
-1867.312500010455
 22
-1099.780709006563
 32
0
 13
-1867.312500010455
 23
-1099.780709006563
 33
0
  0
MTEXT
  5
ED
100
AcDbEntity
  8
dimensionFromMid
  6
CONTINUOUS
 62
    0
370
   -2
100
AcDbMText
 10
-1580.360033657003
 20
-1094.12448765723
 30
0
 40
10
 41
40.00000000000061
 71
    5
 72
    1
  1
574.28
  7
standard
210
0
220
0
230
1
 50
360
 73
    2
 44
1
  0
LINE
  5
EE
100
AcDbEntity
  8
dimensionFromMid
  6
ByBlock
 62
    0
370
   -2
100
AcDbLine
 10
-1293.220067303552
 20
-885.7123279284958
 11
-1293.220067303552
 21
-1100.14548765723
  0
LINE
  5
EF
100
AcDbEntity
  8
dimensionFromMid
  6
ByBlock
 62
    0
370
   -2
100
AcDbLine
 10
-1867.500000010455
 20
-958.3987494791071
 11
-1867.500000010455
 21
-1100.14548765723
  0
ENDBLK
  5
68
330
66
100
AcDbEntity
  8
0
100
AcDbBlockEnd
  0
BLOCK
  5
6A
330
69
100
AcDbEntity
  8
0
100
AcDbBlockBegin
  2
*D23
 70
    1
 10
0
 20
0
  3
*D23
  1

  0
LINE
  5
F0
100
AcDbEntity
  8
dimensionFromMid
  6
ByBlock
 62
    0
370
   -2
100
AcDbLine
 10
-1867.500000010455
 20
-359.0799984066042
 11
-911.3087539729863
 21
-359.0799984066042
  0
SOLID
  5
F1
100
AcDbEntity
  8
dimensionFromMid
  6
ByBlock
 62
    0
370
   -2
100
AcDbTrace
 10
-1867.500000010455
 20
-359.0799984066042
 30
0
 11
-1867.312500010455
 21
-359.0487770572713
 31
0
 12
-1867.312500010455
 22
-359.1112197559372
 32
0
 13
-1867.312500010455
 23
-359.1112197559372
 33
0
  0
SOLID
  5
F2
100
AcDbEntity
  8
dimensionFromMid
  6
ByBlock
 62
    0
370
   -2
100
AcDbTrace
 10
-911.3087539729863
 20
-359.0799984066042
 30
0
 11
-911.4962539729863
 21
-359.1112197559372
 31
0
 12
-911.4962539729863
 22
-359.0487770572713
 32
0
 13
-911.4962539729863
 23
-359.0487770572713
 33
0
  0
MTEXT
  5
F3
100
AcDbEntity
  8
dimensionFromMid
  6
CONTINUOUS
 62
    0
370
   -2
100
AcDbMText
 10
-1389.40437699172
 20
-353.4549984066042
 30
0
 40
10
 41
36.66666666666853
 71
    5
 72
    1
  1
956.19
  7
standard
210
0
220
0
230
1
 50
0
 73
    2
 44
1
  0
LINE
  5
F4
100
AcDbEntity
  8
dimensionFromMid
  6
ByBlock
 62
    0
370
   -2
100
AcDbLine
 10
-1867.500000010455
 20
-369.99626701427
 11
-1867.500000010455
 21
-358.6839984066042
  0
LINE
  5
F5
100
AcDbEntity
  8
dimensionFromMid
  6
ByBlock
 62
    0
370
   -2
100
AcDbLine
 10
-911.3087539729863
 20
-604.593962220428
 11
-911.3087539729863
 21
-358.6839984066042
  0
ENDBLK
  5
6B
330
69
100
AcDbEntity
  8
0
100
AcDbBlockEnd
  0
BLOCK
  5
6D
330
6C
100
AcDbEntity
  8
0
100
AcDbBlockBegin
  2
*D12
 70
    1
 10
0
 20
0
  3
*D12
  1

  0
LINE
  5
F6
100
AcDbEntity
  8
dimensionFromMid
  6
ByBlock
 62
    0
370
   -2
100
AcDbLine
 10
-1867.500000010455
 20
-455.549251709866
 11
-2399.792455072128
 21
-455.549251709866
  0
SOLID
  5
F7
100
AcDbEntity
  8
dimensionFromMid
  6
ByBlock
 62
    0
370
   -2
100
AcDbTrace
 10
-1867.500000010455
 20
-455.549251709866
 30
0
 11
-1867.687500010455
 21
-455.580473059199
 31
0
 12
-1867.687500010455
 22
-455.5180303605331
 32
0
 13
-1867.687500010455
 23
-455.5180303605331
 33
0
  0
SOLID
  5
F8
100
AcDbEntity
  8
dimensionFromMid
  6
ByBlock
 62
    0
370
   -2
100
AcDbTrace
 10
-2399.792455072128
 20
-455.549251709866
 30
0
 11
-2399.604955072128
 21
-455.5180303605331
 31
0
 12
-2399.604955072128
 22
-455.580473059199
 32
0
 13
-2399.604955072128
 23
-455.580473059199
 33
0
  0
MTEXT
  5
F9
100
AcDbEntity
  8
dimensionFromMid
  6
CONTINUOUS
 62
    0
370
   -2
100
AcDbMText
 10
-2133.646227541291
 20
-449.924251709866
 30
0
 40
10
 41
38.88888888889013
 71
    5
 72
    1
  1
532.29
  7
standard
210
0
220
0
230
1
 50
360
 73
    2
 44
1
  0
LINE
  5
FA
100
AcDbEntity
  8
dimensionFromMid
  6
ByBlock
 62
    0
370
   -2
100
AcDbLine
 10
-1867.500000010455
 20
-423.5303339421108
 11
-1867.500000010455
 21
-455.9452517098661
  0
LINE
  5
FB
100
AcDbEntity
  8
dimensionFromMid
  6
ByBlock
 62
    0
370
   -2
100
AcDbLine
 10
-2399.792455072128
 20
-604.9176567165566
 11
-2399.792455072128
 21
-455.153251709866
  0
ENDBLK
  5
6E
330
6C
100
AcDbEntity
  8
0
100
AcDbBlockEnd
  0
BLOCK
  5
70
330
6F
100
AcDbEntity
  8
0
100
AcDbBlockBegin
  2
*D5
 70
    1
 10
0
 20
0
  3
*D5
  1

  0
LINE
  5
FC
100
AcDbEntity
  8
dimension
  6
ByBlock
 62
    0
370
   -2
100
AcDbLine
 10
-2887.500000010455
 20
-980
 11
-2377.500000010455
 21
-980
  0
SOLID
  5
FD
100
AcDbEntity
  8
dimension
  6
ByBlock
 62
    0
370
   -2
100
AcDbTrace
 10
-2887.500000010455
 20
-980
 30
0
 11
-2887.312500010455
 21
-979.968778650667
 31
0
 12
-2887.312500010455
 22
-980.031221349333
 32
0
 13
-2887.312500010455
 23
-980.031221349333
 33
0
  0
SOLID
  5
FE
100
AcDbEntity
  8
dimension
  6
ByBlock
 62
    0
370
   -2
100
AcDbTrace
 10
-2377.500000010455
 20
-980
 30
0
 11
-2377.687500010455
 21
-980.031221349333
 31
0
 12
-2377.687500010455
 22
-979.968778650667
 32
0
 13
-2377.687500010455
 23
-979.968778650667
 33
0
  0
MTEXT
  5
FF
100
AcDbEntity
  8
dimension
  6
CONTINUOUS
 62
    0
370
   -2
100
AcDbMText
 10
-2632.500000010455
 20
-974.375
 30
0
 40
10
 41
36.66666666666729
 71
    5
 72
    1
  1
510.00
  7
standard
210
0
220
0
230
1
 50
0
 73
    2
 44
1
  0
LINE
  5
100
100
AcDbEntity
  8
dimension
  6
ByBlock
 62
    0
370
   -2
100
AcDbLine
 10
-2887.500000010455
 20
-871.7543257086387
 11
-2887.500000010455
 21
-980.396
  0
LINE
  5
101
100
AcDbEntity
  8
dimension
  6
ByBlock
 62
    0
370
   -2
100
AcDbLine
 10
-2377.500000010455
 20
-880.6458100855707
 11
-2377.500000010455
 21
-980.396
  0
ENDBLK
  5
71
330
6F
100
AcDbEntity
  8
0
100
AcDbBlockEnd
  0
BLOCK
  5
73
330
72
100
AcDbEntity
  8
0
100
AcDbBlockBegin
  2
*D16
 70
    1
 10
0
 20
0
  3
*D16
  1

  0
LINE
  5
102
100
AcDbEntity
  8
dimensionFromMid
  6
ByBlock
 62
    0
370
   -2
100
AcDbLine
 10
-1867.500000010455
 20
-216.0509318771063
 11
-908.539198822246
 21
-216.0509318771063
  0
SOLID
  5
103
100
AcDbEntity
  8
dimensionFromMid
  6
ByBlock
 62
    0
370
   -2
100
AcDbTrace
 10
-1867.500000010455
 20
-216.0509318771063
 30
0
 11
-1867.312500010455
 21
-216.0197105277733
 31
0
 12
-1867.312500010455
 22
-216.0821532264392
 32
0
 13
-1867.312500010455
 23
-216.0821532264392
 33
0
  0
SOLID
  5
104
100
AcDbEntity
  8
dimensionFromMid
  6
ByBlock
 62
    0
370
   -2
100
AcDbTrace
 10
-908.539198822246
 20
-216.0509318771063
 30
0
 11
-908.726698822246
 21
-216.0821532264392
 31
0
 12
-908.726698822246
 22
-216.0197105277733
 32
0
 13
-908.726698822246
 23
-216.0197105277733
 33
0
  0
MTEXT
  5
105
100
AcDbEntity
  8
dimensionFromMid
  6
CONTINUOUS
 62
    0
370
   -2
100
AcDbMText
 10
-1388.01959941635
 20
-210.4259318771063
 30
0
 40
10
 41
38.88888888889075
 71
    5
 72
    1
  1
958.96
  7
standard
210
0
220
0
230
1
 50
0
 73
    2
 44
1
  0
LINE
  5
106
100
AcDbEntity
  8
dimensionFromMid
  6
ByBlock
 62
    0
370
   -2
100
AcDbLine
 10
-1867.500000010455
 20
-420.2406697763851
 11
-1867.500000010455
 21
-215.6549318771063
  0
LINE
  5
107
100
AcDbEntity
  8
dimensionFromMid
  6
ByBlock
 62
    0
370
   -2
100
AcDbLine
 10
-908.539198822246
 20
-466.718220546444
 11
-908.539198822246
 21
-215.6549318771063
  0
ENDBLK
  5
74
330
72
100
AcDbEntity
  8
0
100
AcDbBlockEnd
  0
BLOCK
  5
76
330
75
100
AcDbEntity
  8
0
100
AcDbBlockBegin
  2
*D22
 70
    1
 10
0
 20
0
  3
*D22
  1

  0
LINE
  5
108
100
AcDbEntity
  8
dimensionFromMid
  6
ByBlock
 62
    0
370
   -2
100
AcDbLine
 10
44.21507443066405
 20
-265.1747202991527
 11
44.215074430664
 21
-897.3817941004528
  0
SOLID
  5
109
100
AcDbEntity
  8
dimensionFromMid
  6
ByBlock
 62
    0
370
   -2
100
AcDbTrace
 10
44.21507443066405
 20
-265.1747202991527
 30
0
 11
44.24629577999701
 21
-265.3622202991527
 31
0
 12
44.18385308133108
 22
-265.3622202991527
 32
0
 13
44.18385308133108
 23
-265.3622202991527
 33
0
  0
SOLID
  5
10A
100
AcDbEntity
  8
dimensionFromMid
  6
ByBlock
 62
    0
370
   -2
100
AcDbTrace
 10
44.215074430664
 20
-897.3817941004528
 30
0
 11
44.18385308133104
 21
-897.1942941004528
 31
0
 12
44.24629577999697
 22
-897.1942941004528
 32
0
 13
44.24629577999697
 23
-897.1942941004528
 33
0
  0
MTEXT
  5
10B
100
AcDbEntity
  8
dimensionFromMid
  6
CONTINUOUS
 62
    0
370
   -2
100
AcDbMText
 10
38.59007443066402
 20
-581.2782571998027
 30
0
 40
10
 41
36.66666666666791
 71
    5
 72
    1
  1
632.21
  7
standard
210
0
220
0
230
1
 50
90
 73
    2
 44
1
  0
LINE
  5
10C
100
AcDbEntity
  8
dimensionFromMid
  6
ByBlock
 62
    0
370
   -2
100
AcDbLine
 10
-868.0857797293992
 20
-265.1747202991526
 11
44.61107443066405
 21
-265.1747202991527
  0
LINE
  5
10D
100
AcDbEntity
  8
dimensionFromMid
  6
ByBlock
 62
    0
370
   -2
100
AcDbLine
 10
-999.9254707430736
 20
-897.3817941004527
 11
44.611074430664
 21
-897.3817941004528
  0
ENDBLK
  5
77
330
75
100
AcDbEntity
  8
0
100
AcDbBlockEnd
  0
BLOCK
  5
79
330
78
100
AcDbEntity
  8
0
100
AcDbBlockBegin
  2
*D19
 70
    1
 10
0
 20
0
  3
*D19
  1

  0
LINE
  5
10E
100
AcDbEntity
  8
dimensionFromMid
  6
ByBlock
 62
    0
370
   -2
100
AcDbLine
 10
-1867.500000010455
 20
-1261.134509329158
 11
-620.7331509199998
 21
-1261.134509329158
  0
SOLID
  5
10F
100
AcDbEntity
  8
dimensionFromMid
  6
ByBlock
 62
    0
370
   -2
100
AcDbTrace
 10
-1867.500000010455
 20
-1261.134509329158
 30
0
 11
-1867.312500010455
 21
-1261.103287979825
 31
0
 12
-1867.312500010455
 22
-1261.165730678491
 32
0
 13
-1867.312500010455
 23
-1261.165730678491
 33
0
  0
SOLID
  5
110
100
AcDbEntity
  8
dimensionFromMid
  6
ByBlock
 62
    0
370
   -2
100
AcDbTrace
 10
-620.7331509199998
 20
-1261.134509329158
 30
0
 11
-620.9206509199998
 21
-1261.165730678491
 31
0
 12
-620.9206509199998
 22
-1261.103287979825
 32
0
 13
-620.9206509199998
 23
-1261.103287979825
 33
0
  0
MTEXT
  5
111
100
AcDbEntity
  8
dimensionFromMid
  6
CONTINUOUS
 62
    0
370
   -2
100
AcDbMText
 10
-1244.116575465227
 20
-1255.509509329158
 30
0
 40
10
 41
45.55555555555617
 71
    5
 72
    1
  1
1246.77
  7
standard
210
0
220
0
230
1
 50
0
 73
    2
 44
1
  0
LINE
  5
112
100
AcDbEntity
  8
dimensionFromMid
  6
ByBlock
 62
    0
370
   -2
100
AcDbLine
 10
-1867.500000010455
 20
-966.5048464580667
 11
-1867.500000010455
 21
-1261.530509329158
  0
LINE
  5
113
100
AcDbEntity
  8
dimensionFromMid
  6
ByBlock
 62
    0
370
   -2
100
AcDbLine
 10
-620.7331509199998
 20
-871.8160866413297
 11
-620.7331509199998
 21
-1261.530509329158
  0
ENDBLK
  5
7A
330
78
100
AcDbEntity
  8
0
100
AcDbBlockEnd
  0
BLOCK
  5
7C
330
7B
100
AcDbEntity
  8
0
100
AcDbBlockBegin
  2
*D18
 70
    1
 10
0
 20
0
  3
*D18
  1

  0
LINE
  5
114
100
AcDbEntity
  8
dimensionFromMid
  6
ByBlock
 62
    0
370
   -2
100
AcDbLine
 10
-1867.500000010455
 20
-1200.506263329536
 11
-1019.916241412533
 21
-1200.506263329536
  0
SOLID
  5
115
100
AcDbEntity
  8
dimensionFromMid
  6
ByBlock
 62
    0
370
   -2
100
AcDbTrace
 10
-1867.500000010455
 20
-1200.506263329536
 30
0
 11
-1867.312500010455
 21
-1200.475041980203
 31
0
 12
-1867.312500010455
 22
-1200.537484678869
 32
0
 13
-1867.312500010455
 23
-1200.537484678869
 33
0
  0
SOLID
  5
116
100
AcDbEntity
  8
dimensionFromMid
  6
ByBlock
 62
    0
370
   -2
100
AcDbTrace
 10
-1019.916241412533
 20
-1200.506263329536
 30
0
 11
-1020.103741412533
 21
-1200.537484678869
 31
0
 12
-1020.103741412533
 22
-1200.475041980203
 32
0
 13
-1020.103741412533
 23
-1200.475041980203
 33
0
  0
MTEXT
  5
117
100
AcDbEntity
  8
dimensionFromMid
  6
CONTINUOUS
 62
    0
370
   -2
100
AcDbMText
 10
-1443.708120711494
 20
-1194.881263329536
 30
0
 40
10
 41
40.00000000000061
 71
    5
 72
    1
  1
847.58
  7
standard
210
0
220
0
230
1
 50
0
 73
    2
 44
1
  0
LINE
  5
118
100
AcDbEntity
  8
dimensionFromMid
  6
ByBlock
 62
    0
370
   -2
100
AcDbLine
 10
-1867.500000010455
 20
-975.7163202977879
 11
-1867.500000010455
 21
-1200.902263329536
  0
LINE
  5
119
100
AcDbEntity
  8
dimensionFromMid
  6
ByBlock
 62
    0
370
   -2
100
AcDbLine
 10
-1019.916241412533
 20
-885.1635250652608
 11
-1019.916241412533
 21
-1200.902263329536
  0
ENDBLK
  5
7D
330
7B
100
AcDbEntity
  8
0
100
AcDbBlockEnd
  0
BLOCK
  5
7F
330
7E
100
AcDbEntity
  8
0
100
AcDbBlockBegin
  2
*D1
 70
    1
 10
0
 20
0
  3
*D1
  1

  0
LINE
  5
11A
100
AcDbEntity
  8
dimension
  6
ByBlock
 62
    0
370
   -2
100
AcDbLine
 10
-1931.496078927876
 20
67.93525443000108
 11
-1900.581282440239
 21
67.93525443000108
  0
LINE
  5
11B
100
AcDbEntity
  8
dimension
  6
ByBlock
 62
    0
370
   -2
100
AcDbLine
 10
-1910.795867373502
 20
17.88263545805077
 11
-1910.557044514347
 21
17.78371179078439
  0
ARC
  5
11C
100
AcDbEntity
  8
dimension
  6
ByBlock
 62
    0
370
   -2
100
AcDbCircle
 10
-2031.633578927877
 20
67.93525443000108
 40
130.6562964876377
100
AcDbArc
 50
0
 51
337.5
  0
SOLID
  5
11D
100
AcDbEntity
  8
dimension
  6
ByBlock
 62
    0
370
   -2
100
AcDbTrace
 10
-1900.977282440239
 20
67.93525443000108
 30
0
 11
-1901.008638318667
 21
68.12273197943608
 31
0
 12
-1900.946195636076
 22
68.12277678403146
 32
0
 13
-1900.946195636076
 23
68.12277678403146
 33
0
  0
SOLID
  5
11E
100
AcDbEntity
  8
dimension
  6
ByBlock
 62
    0
370
   -2
100
AcDbTrace
 10
-1910.922900809222
 20
17.93525443000097
 30
0
 11
-1910.96594204521
 21
17.75010996030558
 31
0
 12
-1911.023614415635
 22
17.77404713445447
 32
0
 13
-1911.023614415635
 23
17.77404713445447
 33
0
  0
MTEXT
  5
11F
100
AcDbEntity
  8
dimension
  6
CONTINUOUS
 62
    0
370
   -2
100
AcDbMText
 10
-2160.392342115204
 20
93.54696483646919
 30
0
 40
10
 41
26.66666666666791
 71
    8
 72
    1
  1
338%%D
  7
standard
210
0
220
0
230
1
 50
438.7499999999999
 73
    2
 44
1
  0
ENDBLK
  5
80
330
7E
100
AcDbEntity
  8
0
100
AcDbBlockEnd
  0
BLOCK
  5
82
330
81
100
AcDbEntity
  8
0
100
AcDbBlockBegin
  2
*D30
 70
    1
 10
0
 20
0
  3
*D30
  1

  0
LINE
  5
120
100
AcDbEntity
  8
frame
  6
ByBlock
 62
    0
370
   -2
100
AcDbLine
 10
-1799.488732467332
 20
-1277.095926448367
 11
-1795.57460845063
 21
-1324.700137462306
  0
LINE
  5
121
100
AcDbEntity
  8
frame
  6
ByBlock
 62
    0
370
   -2
100
AcDbLine
 10
-1303.799081114696
 20
-1236.339221781594
 11
-1299.884957097994
 21
-1283.943432795533
  0
LINE
  5
122
100
AcDbEntity
  8
frame
  6
ByBlock
 62
    0
370
   -2
100
AcDbLine
 10
-1795.607058944714
 20
-1324.30546929101
 11
-1299.917407592079
 21
-1283.548764624238
  0
SOLID
  5
123
100
AcDbEntity
  8
frame
  6
ByBlock
 62
    0
370
   -2
100
AcDbTrace
 10
-1795.607058944714
 20
-1324.30546929101
 30
0
 11
-1795.422748000507
 21
-1324.258988128163
 31
0
 12
-1795.417631090347
 22
-1324.321220819307
 32
0
 13
-1795.417631090347
 23
-1324.321220819307
 33
0
  0
SOLID
  5
124
100
AcDbEntity
  8
frame
  6
ByBlock
 62
    0
370
   -2
100
AcDbTrace
 10
-1299.917407592079
 20
-1283.548764624238
 30
0
 11
-1300.101718536286
 21
-1283.595245787085
 31
0
 12
-1300.106835446447
 22
-1283.53301309594
 32
0
 13
-1300.106835446447
 23
-1283.53301309594
 33
0
  0
MTEXT
  5
125
100
AcDbEntity
  8
frame
  6
CONTINUOUS
 62
    0
370
   -2
100
AcDbMText
 10
-1548.223177786639
 20
-1298.321034978995
 30
0
 40
10
 41
40.00000000000124
 71
    5
 72
    1
  1
497.36
  7
standard
210
0
220
0
230
1
 50
4.700412973138096
 73
    2
 44
1
  0
ENDBLK
  5
83
330
81
100
AcDbEntity
  8
0
100
AcDbBlockEnd
  0
BLOCK
  5
85
330
84
100
AcDbEntity
  8
0
100
AcDbBlockBegin
  2
*D7
 70
    1
 10
0
 20
0
  3
*D7
  1

  0
LINE
  5
126
100
AcDbEntity
  8
dimension
  6
ByBlock
 62
    0
370
   -2
100
AcDbLine
 10
-2887.500000010455
 20
-1240.701785536632
 11
-2064.870772922232
 21
-1240.701785536632
  0
SOLID
  5
127
100
AcDbEntity
  8
dimension
  6
ByBlock
 62
    0
370
   -2
100
AcDbTrace
 10
-2887.500000010455
 20
-1240.701785536632
 30
0
 11
-2887.312500010455
 21
-1240.670564187299
 31
0
 12
-2887.312500010455
 22
-1240.733006885965
 32
0
 13
-2887.312500010455
 23
-1240.733006885965
 33
0
  0
SOLID
  5
128
100
AcDbEntity
  8
dimension
  6
ByBlock
 62
    0
370
   -2
100
AcDbTrace
 10
-2064.870772922232
 20
-1240.701785536632
 30
0
 11
-2065.058272922232
 21
-1240.733006885965
 31
0
 12
-2065.058272922232
 22
-1240.670564187299
 32
0
 13
-2065.058272922232
 23
-1240.670564187299
 33
0
  0
MTEXT
  5
129
100
AcDbEntity
  8
dimension
  6
CONTINUOUS
 62
    0
370
   -2
100
AcDbMText
 10
-2476.185386466344
 20
-1235.076785536632
 30
0
 40
10
 41
38.88888888889013
 71
    5
 72
    1
  1
822.63
  7
standard
210
0
220
0
230
1
 50
0
 73
    2
 44
1
  0
LINE
  5
12A
100
AcDbEntity
  8
dimension
  6
ByBlock
 62
    0
370
   -2
100
AcDbLine
 10
-2887.500000010455
 20
-1087.45317278476
 11
-2887.500000010455
 21
-1241.097785536632
  0
LINE
  5
12B
100
AcDbEntity
  8
dimension
  6
ByBlock
 62
    0
370
   -2
100
AcDbLine
 10
-2064.870772922232
 20
-885.6623869507991
 11
-2064.870772922232
 21
-1241.097785536632
  0
ENDBLK
  5
86
330
84
100
AcDbEntity
  8
0
100
AcDbBlockEnd
  0
BLOCK
  5
88
330
87
100
AcDbEntity
  8
0
100
AcDbBlockBegin
  2
*D21
 70
    1
 10
0
 20
0
  3
*D21
  1

  0
LINE
  5
12C
100
AcDbEntity
  8
dimensionFromMid
  6
ByBlock
 62
    0
370
   -2
100
AcDbLine
 10
-2887.500000010455
 20
-1152.271636677905
 11
-1867.500000010455
 21
-1152.271636677905
  0
SOLID
  5
12D
100
AcDbEntity
  8
dimensionFromMid
  6
ByBlock
 62
    0
370
   -2
100
AcDbTrace
 10
-2887.500000010455
 20
-1152.271636677905
 30
0
 11
-2887.312500010455
 21
-1152.240415328572
 31
0
 12
-2887.312500010455
 22
-1152.302858027238
 32
0
 13
-2887.312500010455
 23
-1152.302858027238
 33
0
  0
SOLID
  5
12E
100
AcDbEntity
  8
dimensionFromMid
  6
ByBlock
 62
    0
370
   -2
100
AcDbTrace
 10
-1867.500000010455
 20
-1152.271636677905
 30
0
 11
-1867.687500010455
 21
-1152.302858027238
 31
0
 12
-1867.687500010455
 22
-1152.240415328572
 32
0
 13
-1867.687500010455
 23
-1152.240415328572
 33
0
  0
MTEXT
  5
12F
100
AcDbEntity
  8
dimensionFromMid
  6
CONTINUOUS
 62
    0
370
   -2
100
AcDbMText
 10
-2377.500000010455
 20
-1146.646636677905
 30
0
 40
10
 41
44.44444444444444
 71
    5
 72
    1
  1
1020.00
  7
standard
210
0
220
0
230
1
 50
0
 73
    2
 44
1
  0
LINE
  5
130
100
AcDbEntity
  8
dimensionFromMid
  6
ByBlock
 62
    0
370
   -2
100
AcDbLine
 10
-2887.500000010455
 20
-821.0627826267717
 11
-2887.500000010455
 21
-1152.667636677905
  0
LINE
  5
131
100
AcDbEntity
  8
dimensionFromMid
  6
ByBlock
 62
    0
370
   -2
100
AcDbLine
 10
-1867.500000010455
 20
-968.8495852536342
 11
-1867.500000010455
 21
-1152.667636677905
  0
ENDBLK
  5
89
330
87
100
AcDbEntity
  8
0
100
AcDbBlockEnd
  0
BLOCK
  5
8B
330
8A
100
AcDbEntity
  8
0
100
AcDbBlockBegin
  2
*D24
 70
    1
 10
0
 20
0
  3
*D24
  1

  0
LINE
  5
132
100
AcDbEntity
  8
0
  6
ByBlock
 62
    0
370
   -2
100
AcDbLine
 10
-188.2323831546184
 20
-847.8011707355053
 11
-187.4545412379857
 21
-988.2215473584122
  0
LINE
  5
133
100
AcDbEntity
  8
0
  6
ByBlock
 62
    0
370
   -2
100
AcDbLine
 10
-609.9992383468466
 20
-850.1374978904728
 11
-609.2213964302139
 21
-990.5578745133797
  0
LINE
  5
134
100
AcDbEntity
  8
0
  6
ByBlock
 62
    0
370
   -2
100
AcDbLine
 10
-187.4567347990676
 20
-987.8255534338505
 11
-609.2235899912957
 21
-990.161880588818
  0
SOLID
  5
135
100
AcDbEntity
  8
0
  6
ByBlock
 62
    0
370
   -2
100
AcDbTrace
 10
-187.4567347990676
 20
-987.8255534338505
 30
0
 11
-187.6440589781547
 21
-987.8578129221215
 31
0
 12
-187.6444048667245
 22
-987.7953711814524
 32
0
 13
-187.6444048667245
 23
-987.7953711814524
 33
0
  0
SOLID
  5
136
100
AcDbEntity
  8
0
  6
ByBlock
 62
    0
370
   -2
100
AcDbTrace
 10
-609.2235899912957
 20
-990.161880588818
 30
0
 11
-609.0362658122086
 21
-990.129621100547
 31
0
 12
-609.0359199236389
 22
-990.1920628412161
 32
0
 13
-609.0359199236389
 23
-990.1920628412161
 33
0
  0
MTEXT
  5
137
100
AcDbEntity
  8
0
  6
CONTINUOUS
 62
    0
370
   -2
100
AcDbMText
 10
-398.3713209332745
 20
-983.3688033101736
 30
0
 40
10
 41
37.77777777777777
 71
    5
 72
    1
  1
421.77
  7
standard
210
0
220
0
230
1
 50
0.3173798859452602
 73
    2
 44
1
  0
ENDBLK
  5
8C
330
8A
100
AcDbEntity
  8
0
100
AcDbBlockEnd
  0
BLOCK
  5
8E
330
8D
100
AcDbEntity
  8
0
100
AcDbBlockBegin
  2
*D26
 70
    1
 10
0
 20
0
  3
*D26
  1

  0
LINE
  5
138
100
AcDbEntity
  8
0
  6
ByBlock
 62
    0
370
   -2
100
AcDbLine
 10
-1799.65891314
 20
-1058.867762420502
 11
-1955.99265085
 21
-1058.867762420502
  0
LINE
  5
139
100
AcDbEntity
  8
0
  6
ByBlock
 62
    0
370
   -2
100
AcDbLine
 10
-1799.65891314
 20
-1273.545114398751
 11
-1955.99265085
 21
-1273.545114398751
  0
LINE
  5
13A
100
AcDbEntity
  8
0
  6
ByBlock
 62
    0
370
   -2
100
AcDbLine
 10
-1955.59665085
 20
-1058.867762420502
 11
-1955.59665085
 21
-1273.545114398751
  0
SOLID
  5
13B
100
AcDbEntity
  8
0
  6
ByBlock
 62
    0
370
   -2
100
AcDbTrace
 10
-1955.59665085
 20
-1058.867762420502
 30
0
 11
-1955.565429500667
 21
-1059.055262420502
 31
0
 12
-1955.627872199333
 22
-1059.055262420502
 32
0
 13
-1955.627872199333
 23
-1059.055262420502
 33
0
  0
SOLID
  5
13C
100
AcDbEntity
  8
0
  6
ByBlock
 62
    0
370
   -2
100
AcDbTrace
 10
-1955.59665085
 20
-1273.545114398751
 30
0
 11
-1955.627872199333
 21
-1273.357614398751
 31
0
 12
-1955.565429500667
 22
-1273.357614398751
 32
0
 13
-1955.565429500667
 23
-1273.357614398751
 33
0
  0
MTEXT
  5
13D
100
AcDbEntity
  8
0
  6
CONTINUOUS
 62
    0
370
   -2
100
AcDbMText
 10
-1961.22165085
 20
-1166.206438409626
 30
0
 40
10
 41
37.7777777777784
 71
    5
 72
    1
  1
214.68
  7
standard
210
0
220
0
230
1
 50
90
 73
    2
 44
1
  0
ENDBLK
  5
8F
330
8D
100
AcDbEntity
  8
0
100
AcDbBlockEnd
  0
BLOCK
  5
91
330
90
100
AcDbEntity
  8
0
100
AcDbBlockBegin
  2
*D20
 70
    1
 10
0
 20
0
  3
*D20
  1

  0
LINE
  5
13E
100
AcDbEntity
  8
dimensionFromMid
  6
ByBlock
 62
    0
370
   -2
100
AcDbLine
 10
-2377.500000010455
 20
-1126.814472611765
 11
-1867.500000010455
 21
-1126.814472611765
  0
SOLID
  5
13F
100
AcDbEntity
  8
dimensionFromMid
  6
ByBlock
 62
    0
370
   -2
100
AcDbTrace
 10
-2377.500000010455
 20
-1126.814472611765
 30
0
 11
-2377.312500010455
 21
-1126.783251262432
 31
0
 12
-2377.312500010455
 22
-1126.845693961099
 32
0
 13
-2377.312500010455
 23
-1126.845693961099
 33
0
  0
SOLID
  5
140
100
AcDbEntity
  8
dimensionFromMid
  6
ByBlock
 62
    0
370
   -2
100
AcDbTrace
 10
-1867.500000010455
 20
-1126.814472611765
 30
0
 11
-1867.687500010455
 21
-1126.845693961099
 31
0
 12
-1867.687500010455
 22
-1126.783251262432
 32
0
 13
-1867.687500010455
 23
-1126.783251262432
 33
0
  0
MTEXT
  5
141
100
AcDbEntity
  8
dimensionFromMid
  6
CONTINUOUS
 62
    0
370
   -2
100
AcDbMText
 10
-2122.500000010455
 20
-1121.189472611765
 30
0
 40
10
 41
36.66666666666729
 71
    5
 72
    1
  1
510.00
  7
standard
210
0
220
0
230
1
 50
0
 73
    2
 44
1
  0
LINE
  5
142
100
AcDbEntity
  8
dimensionFromMid
  6
ByBlock
 62
    0
370
   -2
100
AcDbLine
 10
-2377.500000010455
 20
-880.6458100855707
 11
-2377.500000010455
 21
-1127.210472611765
  0
LINE
  5
143
100
AcDbEntity
  8
dimensionFromMid
  6
ByBlock
 62
    0
370
   -2
100
AcDbLine
 10
-1867.500000010455
 20
-955.4510778504028
 11
-1867.500000010455
 21
-1127.210472611765
  0
ENDBLK
  5
92
330
90
100
AcDbEntity
  8
0
100
AcDbBlockEnd
  0
BLOCK
  5
94
330
93
100
AcDbEntity
  8
0
100
AcDbBlockBegin
  2
*D4
 70
    1
 10
0
 20
0
  3
*D4
  1

  0
LINE
  5
144
100
AcDbEntity
  8
dimension
  6
ByBlock
 62
    0
370
   -2
100
AcDbLine
 10
-2887.500000010455
 20
-771.7543257086387
 11
-2887.500000010455
 21
-1020.396
  0
LINE
  5
145
100
AcDbEntity
  8
dimension
  6
ByBlock
 62
    0
370
   -2
100
AcDbLine
 10
-2270.86387907
 20
-771.7543257086387
 11
-2270.86387907
 21
-1020.396
  0
LINE
  5
146
100
AcDbEntity
  8
dimension
  6
ByBlock
 62
    0
370
   -2
100
AcDbLine
 10
-2887.500000010455
 20
-1020
 11
-2270.86387907
 21
-1020
  0
SOLID
  5
147
100
AcDbEntity
  8
dimension
  6
ByBlock
 62
    0
370
   -2
100
AcDbTrace
 10
-2887.500000010455
 20
-1020
 30
0
 11
-2887.312500010455
 21
-1019.968778650667
 31
0
 12
-2887.312500010455
 22
-1020.031221349333
 32
0
 13
-2887.312500010455
 23
-1020.031221349333
 33
0
  0
SOLID
  5
148
100
AcDbEntity
  8
dimension
  6
ByBlock
 62
    0
370
   -2
100
AcDbTrace
 10
-2270.86387907
 20
-1020
 30
0
 11
-2271.05137907
 21
-1020.031221349333
 31
0
 12
-2271.05137907
 22
-1019.968778650667
 32
0
 13
-2271.05137907
 23
-1019.968778650667
 33
0
  0
MTEXT
  5
149
100
AcDbEntity
  8
dimension
  6
CONTINUOUS
 62
    0
370
   -2
100
AcDbMText
 10
-2579.181939540227
 20
-1014.375
 30
0
 40
10
 41
37.77777777777963
 71
    5
 72
    1
  1
616.64
  7
standard
210
0
220
0
230
1
 50
0
 73
    2
 44
1
  0
ENDBLK
  5
95
330
93
100
AcDbEntity
  8
0
100
AcDbBlockEnd
  0
BLOCK
  5
97
330
96
100
AcDbEntity
  8
0
100
AcDbBlockBegin
  2
*D14
 70
    1
 10
0
 20
0
  3
*D14
  1

  0
LINE
  5
14A
100
AcDbEntity
  8
dimensionFromMid
  6
ByBlock
 62
    0
370
   -2
100
AcDbLine
 10
-1867.500000010455
 20
-1174.781129115326
 11
-1087.499994643893
 21
-1174.781129115326
  0
SOLID
  5
14B
100
AcDbEntity
  8
dimensionFromMid
  6
ByBlock
 62
    0
370
   -2
100
AcDbTrace
 10
-1867.500000010455
 20
-1174.781129115326
 30
0
 11
-1867.312500010455
 21
-1174.749907765993
 31
0
 12
-1867.312500010455
 22
-1174.812350464659
 32
0
 13
-1867.312500010455
 23
-1174.812350464659
 33
0
  0
SOLID
  5
14C
100
AcDbEntity
  8
dimensionFromMid
  6
ByBlock
 62
    0
370
   -2
100
AcDbTrace
 10
-1087.499994643893
 20
-1174.781129115326
 30
0
 11
-1087.687494643893
 21
-1174.812350464659
 31
0
 12
-1087.687494643893
 22
-1174.749907765993
 32
0
 13
-1087.687494643893
 23
-1174.749907765993
 33
0
  0
MTEXT
  5
14D
100
AcDbEntity
  8
dimensionFromMid
  6
CONTINUOUS
 62
    0
370
   -2
100
AcDbMText
 10
-1477.499997327174
 20
-1169.156129115326
 30
0
 40
10
 41
38.88888888888889
 71
    5
 72
    1
  1
780.00
  7
standard
210
0
220
0
230
1
 50
0
 73
    2
 44
1
  0
LINE
  5
14E
100
AcDbEntity
  8
dimensionFromMid
  6
ByBlock
 62
    0
370
   -2
100
AcDbLine
 10
-1867.500000010455
 20
-1002.345853761706
 11
-1867.500000010455
 21
-1175.177129115326
  0
LINE
  5
14F
100
AcDbEntity
  8
dimensionFromMid
  6
ByBlock
 62
    0
370
   -2
100
AcDbLine
 10
-1087.499994643893
 20
-685.6260119784158
 11
-1087.499994643893
 21
-1175.177129115326
  0
ENDBLK
  5
98
330
96
100
AcDbEntity
  8
0
100
AcDbBlockEnd
  0
BLOCK
  5
9A
330
99
100
AcDbEntity
  8
0
100
AcDbBlockBegin
  2
*D28
 70
    1
 10
0
 20
0
  3
*D28
  1

  0
LINE
  5
150
100
AcDbEntity
  8
0
  6
ByBlock
 62
    0
370
   -2
100
AcDbLine
 10
-1379.411429199312
 20
-1237.948727198123
 11
-1378.732489207904
 21
-1368.4118604623
  0
LINE
  5
151
100
AcDbEntity
  8
0
  6
ByBlock
 62
    0
370
   -2
100
AcDbLine
 10
-1799.999284449312
 20
-1240.137498138123
 11
-1799.320344457904
 21
-1370.6006314023
  0
LINE
  5
152
100
AcDbEntity
  8
0
  6
ByBlock
 62
    0
370
   -2
100
AcDbLine
 10
-1378.734549993884
 20
-1368.015865824506
 11
-1799.322405243884
 21
-1370.204636764506
  0
SOLID
  5
153
100
AcDbEntity
  8
0
  6
ByBlock
 62
    0
370
   -2
100
AcDbTrace
 10
-1378.734549993884
 20
-1368.015865824506
 30
0
 11
-1378.921884978902
 21
-1368.048062502011
 31
0
 12
-1378.922209931018
 22
-1367.985620648877
 32
0
 13
-1378.922209931018
 23
-1367.985620648877
 33
0
  0
SOLID
  5
154
100
AcDbEntity
  8
0
  6
ByBlock
 62
    0
370
   -2
100
AcDbTrace
 10
-1799.322405243884
 20
-1370.204636764506
 30
0
 11
-1799.135070258866
 21
-1370.172440087002
 31
0
 12
-1799.13474530675
 22
-1370.234881940135
 32
0
 13
-1799.13474530675
 23
-1370.234881940135
 33
0
  0
MTEXT
  5
155
100
AcDbEntity
  8
0
  6
CONTINUOUS
 62
    0
370
   -2
100
AcDbMText
 10
-1589.057750147012
 20
-1363.485327462213
 30
0
 40
10
 41
40.00000000000062
 71
    5
 72
    1
  1
420.59
  7
standard
210
0
220
0
230
1
 50
0.298168868942057
 73
    2
 44
1
  0
ENDBLK
  5
9B
330
99
100
AcDbEntity
  8
0
100
AcDbBlockEnd
  0
BLOCK
  5
9D
330
9C
100
AcDbEntity
  8
0
100
AcDbBlockBegin
  2
*D3
 70
    1
 10
0
 20
0
  3
*D3
  1

  0
LINE
  5
156
100
AcDbEntity
  8
centerOfmass
  6
ByBlock
 62
    0
370
   -2
100
AcDbLine
 10
258.2523836024019
 20
-712.154878234324
 11
258.2523836024019
 21
-756.9629295969686
  0
LINE
  5
157
100
AcDbEntity
  8
centerOfmass
  6
ByBlock
 62
    0
370
   -2
100
AcDbLine
 10
524.5100328187743
 20
-713.6559304705459
 11
382.7527309889554
 21
-819.4112654362295
  0
ARC
  5
158
100
AcDbEntity
  8
centerOfmass
  6
ByBlock
 62
    0
370
   -2
100
AcDbCircle
 10
258.2523836024019
 20
-912.292378234324
 40
154.9334486373555
100
AcDbArc
 50
36.7240779786786
 51
90
  0
SOLID
  5
159
100
AcDbEntity
  8
centerOfmass
  6
ByBlock
 62
    0
370
   -2
100
AcDbTrace
 10
258.2523836024019
 20
-757.3589295969686
 30
0
 11
258.4399024600669
 21
-757.3278217093164
 31
0
 12
258.4398646760849
 22
-757.3902643965507
 32
0
 13
258.4398646760849
 23
-757.3902643965507
 33
0
  0
SOLID
  5
15A
100
AcDbEntity
  8
centerOfmass
  6
ByBlock
 62
    0
370
   -2
100
AcDbTrace
 10
382.4353273156817
 20
-819.6480584010582
 30
0
 11
382.2981051445319
 21
-819.516524761258
 31
0
 12
382.3481318902797
 22
-819.4791561203065
 32
0
 13
382.3481318902797
 23
-819.4791561203065
 33
0
  0
MTEXT
  5
15B
100
AcDbEntity
  8
centerOfmass
  6
CONTINUOUS
 62
    0
370
   -2
100
AcDbMText
 10
327.9972328578138
 20
-773.2453108621546
 30
0
 40
10
 41
18.88888888889013
 71
    8
 72
    1
  1
53%%D
  7
standard
210
0
220
0
230
1
 50
333.3620389893393
 73
    2
 44
1
  0
ENDBLK
  5
9E
330
9C
100
AcDbEntity
  8
0
100
AcDbBlockEnd
  0
BLOCK
  5
A0
330
9F
100
AcDbEntity
  8
0
100
AcDbBlockBegin
  2
*D8
 70
    1
 10
0
 20
0
  3
*D8
  1

  0
LINE
  5
15C
100
AcDbEntity
  8
dimensionFromMid
  6
ByBlock
 62
    0
370
   -2
100
AcDbLine
 10
-1867.500000010455
 20
-1063.380086243716
 11
-2064.870772922232
 21
-1063.380086243716
  0
SOLID
  5
15D
100
AcDbEntity
  8
dimensionFromMid
  6
ByBlock
 62
    0
370
   -2
100
AcDbTrace
 10
-1867.500000010455
 20
-1063.380086243716
 30
0
 11
-1867.687500010455
 21
-1063.411307593049
 31
0
 12
-1867.687500010455
 22
-1063.348864894383
 32
0
 13
-1867.687500010455
 23
-1063.348864894383
 33
0
  0
SOLID
  5
15E
100
AcDbEntity
  8
dimensionFromMid
  6
ByBlock
 62
    0
370
   -2
100
AcDbTrace
 10
-2064.870772922232
 20
-1063.380086243716
 30
0
 11
-2064.683272922232
 21
-1063.348864894383
 31
0
 12
-2064.683272922232
 22
-1063.411307593049
 32
0
 13
-2064.683272922232
 23
-1063.411307593049
 33
0
  0
MTEXT
  5
15F
100
AcDbEntity
  8
dimensionFromMid
  6
CONTINUOUS
 62
    0
370
   -2
100
AcDbMText
 10
-1966.185386466343
 20
-1057.755086243716
 30
0
 40
10
 41
36.66666666666729
 71
    5
 72
    1
  1
197.37
  7
standard
210
0
220
0
230
1
 50
360
 73
    2
 44
1
  0
LINE
  5
160
100
AcDbEntity
  8
dimensionFromMid
  6
ByBlock
 62
    0
370
   -2
100
AcDbLine
 10
-1867.500000010455
 20
-961.6473420400005
 11
-1867.500000010455
 21
-1063.776086243716
  0
LINE
  5
161
100
AcDbEntity
  8
dimensionFromMid
  6
ByBlock
 62
    0
370
   -2
100
AcDbLine
 10
-2064.870772922232
 20
-885.6623869507991
 11
-2064.870772922232
 21
-1063.776086243716
  0
ENDBLK
  5
A1
330
9F
100
AcDbEntity
  8
0
100
AcDbBlockEnd
  0
BLOCK
  5
A3
330
A2
100
AcDbEntity
  8
0
100
AcDbBlockBegin
  2
*D31
 70
    1
 10
0
 20
0
  3
*D31
  1

  0
LINE
  5
162
100
AcDbEntity
  8
frame
  6
ByBlock
 62
    0
370
   -2
100
AcDbLine
 10
-2368.304910422004
 20
-1102.515205306389
 11
-2360.015485807344
 21
-1079.666150278801
  0
LINE
  5
163
100
AcDbEntity
  8
frame
  6
ByBlock
 62
    0
370
   -2
100
AcDbLine
 10
-2099.953106884009
 20
-1199.870743334127
 11
-2091.663682269349
 21
-1177.021688306539
  0
LINE
  5
164
100
AcDbEntity
  8
frame
  6
ByBlock
 62
    0
370
   -2
100
AcDbLine
 10
-2360.150537981398
 20
-1080.038409476516
 11
-2091.798734443404
 21
-1177.393947504253
  0
SOLID
  5
165
100
AcDbEntity
  8
frame
  6
ByBlock
 62
    0
370
   -2
100
AcDbTrace
 10
-2360.150537981398
 20
-1080.038409476516
 30
0
 11
-2359.963631136257
 21
-1080.07300505273
 31
0
 12
-2359.984926646885
 22
-1080.131704216641
 32
0
 13
-2359.984926646885
 23
-1080.131704216641
 33
0
  0
SOLID
  5
166
100
AcDbEntity
  8
frame
  6
ByBlock
 62
    0
370
   -2
100
AcDbTrace
 10
-2091.798734443404
 20
-1177.393947504253
 30
0
 11
-2091.985641288545
 21
-1177.359351928039
 31
0
 12
-2091.964345777917
 22
-1177.300652764128
 32
0
 13
-2091.964345777917
 23
-1177.300652764128
 33
0
  0
MTEXT
  5
167
100
AcDbEntity
  8
frame
  6
CONTINUOUS
 62
    0
370
   -2
100
AcDbMText
 10
-2224.056281467307
 20
-1123.428405795575
 30
0
 40
10
 41
40.00000000000061
 71
    5
 72
    1
  1
285.47
  7
standard
210
0
220
0
230
1
 50
340.0596994316696
 73
    2
 44
1
  0
ENDBLK
  5
A4
330
A2
100
AcDbEntity
  8
0
100
AcDbBlockEnd
  0
BLOCK
  5
A6
330
A5
100
AcDbEntity
  8
0
100
AcDbBlockBegin
  2
*D11
 70
    1
 10
0
 20
0
  3
*D11
  1

  0
LINE
  5
168
100
AcDbEntity
  8
dimensionFromMid
  6
ByBlock
 62
    0
370
   -2
100
AcDbLine
 10
-1867.500000010455
 20
-480.2025053318117
 11
-2270.86387907
 21
-480.2025053318117
  0
SOLID
  5
169
100
AcDbEntity
  8
dimensionFromMid
  6
ByBlock
 62
    0
370
   -2
100
AcDbTrace
 10
-1867.500000010455
 20
-480.2025053318117
 30
0
 11
-1867.687500010455
 21
-480.2337266811446
 31
0
 12
-1867.687500010455
 22
-480.1712839824787
 32
0
 13
-1867.687500010455
 23
-480.1712839824787
 33
0
  0
SOLID
  5
16A
100
AcDbEntity
  8
dimensionFromMid
  6
ByBlock
 62
    0
370
   -2
100
AcDbTrace
 10
-2270.86387907
 20
-480.2025053318117
 30
0
 11
-2270.67637907
 21
-480.1712839824787
 31
0
 12
-2270.67637907
 22
-480.2337266811446
 32
0
 13
-2270.67637907
 23
-480.2337266811446
 33
0
  0
MTEXT
  5
16B
100
AcDbEntity
  8
dimensionFromMid
  6
CONTINUOUS
 62
    0
370
   -2
100
AcDbMText
 10
-2069.181939540227
 20
-474.5775053318117
 30
0
 40
10
 41
40.00000000000186
 71
    5
 72
    1
  1
403.36
  7
standard
210
0
220
0
230
1
 50
360
 73
    2
 44
1
  0
LINE
  5
16C
100
AcDbEntity
  8
dimensionFromMid
  6
ByBlock
 62
    0
370
   -2
100
AcDbLine
 10
-1867.500000010455
 20
-462.1180352634171
 11
-1867.500000010455
 21
-480.5985053318117
  0
LINE
  5
16D
100
AcDbEntity
  8
dimensionFromMid
  6
ByBlock
 62
    0
370
   -2
100
AcDbLine
 10
-2270.86387907
 20
-758.8723420400003
 11
-2270.86387907
 21
-479.8065053318116
  0
ENDBLK
  5
A7
330
A5
100
AcDbEntity
  8
0
100
AcDbBlockEnd
  0
BLOCK
  5
A9
330
A8
100
AcDbEntity
  8
0
100
AcDbBlockBegin
  2
*D25
 70
    1
 10
0
 20
0
  3
*D25
  1

  0
LINE
  5
16E
100
AcDbEntity
  8
0
  6
ByBlock
 62
    0
370
   -2
100
AcDbLine
 10
-1820.518386979955
 20
-1419.885683300001
 11
-2150.396000000001
 21
-1419.885683300001
  0
LINE
  5
16F
100
AcDbEntity
  8
0
  6
ByBlock
 62
    0
370
   -2
100
AcDbLine
 10
-1820.518386979955
 20
-1922.264209110002
 11
-2150.396
 21
-1922.264209110002
  0
LINE
  5
170
100
AcDbEntity
  8
0
  6
ByBlock
 62
    0
370
   -2
100
AcDbLine
 10
-2150
 20
-1419.885683300001
 11
-2150
 21
-1922.264209110002
  0
SOLID
  5
171
100
AcDbEntity
  8
0
  6
ByBlock
 62
    0
370
   -2
100
AcDbTrace
 10
-2150
 20
-1419.885683300001
 30
0
 11
-2149.968778650667
 21
-1420.073183300001
 31
0
 12
-2150.031221349333
 22
-1420.073183300001
 32
0
 13
-2150.031221349333
 23
-1420.073183300001
 33
0
  0
SOLID
  5
172
100
AcDbEntity
  8
0
  6
ByBlock
 62
    0
370
   -2
100
AcDbTrace
 10
-2150
 20
-1922.264209110002
 30
0
 11
-2150.031221349333
 21
-1922.076709110002
 31
0
 12
-2149.968778650667
 22
-1922.076709110002
 32
0
 13
-2149.968778650667
 23
-1922.076709110002
 33
0
  0
MTEXT
  5
173
100
AcDbEntity
  8
0
  6
CONTINUOUS
 62
    0
370
   -2
100
AcDbMText
 10
-2155.625
 20
-1671.074946205001
 30
0
 40
10
 41
38.88888888889012
 71
    5
 72
    1
  1
502.38
  7
standard
210
0
220
0
230
1
 50
90.00000000000006
 73
    2
 44
1
  0
ENDBLK
  5
AA
330
A8
100
AcDbEntity
  8
0
100
AcDbBlockEnd
  0
BLOCK
  5
AC
330
AB
100
AcDbEntity
  8
0
100
AcDbBlockBegin
  2
*D10
 70
    1
 10
0
 20
0
  3
*D10
  1

  0
LINE
  5
174
100
AcDbEntity
  8
dimensionFromMid
  6
ByBlock
 62
    0
370
   -2
100
AcDbLine
 10
-1867.500000010455
 20
-504.5375444029302
 11
-2071.011245342429
 21
-504.5375444029302
  0
SOLID
  5
175
100
AcDbEntity
  8
dimensionFromMid
  6
ByBlock
 62
    0
370
   -2
100
AcDbTrace
 10
-1867.500000010455
 20
-504.5375444029302
 30
0
 11
-1867.687500010455
 21
-504.5687657522631
 31
0
 12
-1867.687500010455
 22
-504.5063230535972
 32
0
 13
-1867.687500010455
 23
-504.5063230535972
 33
0
  0
SOLID
  5
176
100
AcDbEntity
  8
dimensionFromMid
  6
ByBlock
 62
    0
370
   -2
100
AcDbTrace
 10
-2071.011245342429
 20
-504.5375444029302
 30
0
 11
-2070.823745342429
 21
-504.5063230535972
 31
0
 12
-2070.823745342429
 22
-504.5687657522631
 32
0
 13
-2070.823745342429
 23
-504.5687657522631
 33
0
  0
MTEXT
  5
177
100
AcDbEntity
  8
dimensionFromMid
  6
CONTINUOUS
 62
    0
370
   -2
100
AcDbMText
 10
-1969.255622676442
 20
-498.9125444029302
 30
0
 40
10
 41
36.66666666666791
 71
    5
 72
    1
  1
203.51
  7
standard
210
0
220
0
230
1
 50
360
 73
    2
 44
1
  0
LINE
  5
178
100
AcDbEntity
  8
dimensionFromMid
  6
ByBlock
 62
    0
370
   -2
100
AcDbLine
 10
-1867.500000010455
 20
-484.6275277008452
 11
-1867.500000010455
 21
-504.9335444029302
  0
LINE
  5
179
100
AcDbEntity
  8
dimensionFromMid
  6
ByBlock
 62
    0
370
   -2
100
AcDbLine
 10
-2071.011245342429
 20
-578.4148688452171
 11
-2071.011245342429
 21
-504.1415444029302
  0
ENDBLK
  5
AD
330
AB
100
AcDbEntity
  8
0
100
AcDbBlockEnd
  0
BLOCK
  5
AF
330
AE
100
AcDbEntity
  8
0
100
AcDbBlockBegin
  2
*D33
 70
    1
 10
0
 20
0
  3
*D33
  1

  0
LINE
  5
17A
100
AcDbEntity
  8
frame
  6
ByBlock
 62
    0
370
   -2
100
AcDbLine
 10
-2368.489303537377
 20
-1102.644475003947
 11
-2380.399540297812
 21
-1102.6456038072
  0
LINE
  5
17B
100
AcDbEntity
  8
frame
  6
ByBlock
 62
    0
370
   -2
100
AcDbLine
 10
-2368.477972411729
 20
-1222.201526971785
 11
-2380.388209172163
 21
-1222.202655775039
  0
LINE
  5
17C
100
AcDbEntity
  8
frame
  6
ByBlock
 62
    0
370
   -2
100
AcDbLine
 10
-2380.00354029959
 20
-1102.645566275949
 11
-2379.992209173942
 21
-1222.202618243788
  0
SOLID
  5
17D
100
AcDbEntity
  8
frame
  6
ByBlock
 62
    0
370
   -2
100
AcDbTrace
 10
-2380.00354029959
 20
-1102.645566275949
 30
0
 11
-2379.972301179918
 21
-1102.833063316076
 31
0
 12
-2380.034743878304
 22
-1102.833069234138
 32
0
 13
-2380.034743878304
 23
-1102.833069234138
 33
0
  0
SOLID
  5
17E
100
AcDbEntity
  8
frame
  6
ByBlock
 62
    0
370
   -2
100
AcDbTrace
 10
-2379.992209173942
 20
-1222.202618243788
 30
0
 11
-2380.023448293613
 21
-1222.015121203661
 31
0
 12
-2379.961005595228
 22
-1222.015115285599
 32
0
 13
-2379.961005595228
 23
-1222.015115285599
 33
0
  0
MTEXT
  5
17F
100
AcDbEntity
  8
frame
  6
CONTINUOUS
 62
    0
370
   -2
100
AcDbMText
 10
-2385.622874711503
 20
-1162.424625374221
 30
0
 40
10
 41
34.44444444444569
 71
    5
 72
    1
  1
119.56
  7
standard
210
0
220
0
230
1
 50
90.00543025830888
 73
    2
 44
1
  0
ENDBLK
  5
B0
330
AE
100
AcDbEntity
  8
0
100
AcDbBlockEnd
  0
BLOCK
  5
B2
330
B1
100
AcDbEntity
  8
0
100
AcDbBlockBegin
  2
*D32
 70
    1
 10
0
 20
0
  3
*D32
  1

  0
LINE
  5
180
100
AcDbEntity
  8
frame
  6
ByBlock
 62
    0
370
   -2
100
AcDbLine
 10
-2368.340472412347
 20
-1222.201513940101
 11
-2365.492789107776
 21
-1256.639808085913
  0
LINE
  5
181
100
AcDbEntity
  8
frame
  6
ByBlock
 62
    0
370
   -2
100
AcDbLine
 10
-2099.941775758361
 20
-1200.007775649993
 11
-2097.09409245379
 21
-1234.446069795805
  0
LINE
  5
182
100
AcDbEntity
  8
frame
  6
ByBlock
 62
    0
370
   -2
100
AcDbLine
 10
-2365.525422749643
 20
-1256.245155016219
 11
-2097.126726095657
 21
-1234.051416726111
  0
SOLID
  5
183
100
AcDbEntity
  8
frame
  6
ByBlock
 62
    0
370
   -2
100
AcDbTrace
 10
-2365.525422749643
 20
-1256.245155016219
 30
0
 11
-2365.341133395515
 21
-1256.19858832631
 31
0
 12
-2365.335987605956
 22
-1256.260818636179
 32
0
 13
-2365.335987605956
 23
-1256.260818636179
 33
0
  0
SOLID
  5
184
100
AcDbEntity
  8
frame
  6
ByBlock
 62
    0
370
   -2
100
AcDbTrace
 10
-2097.126726095657
 20
-1234.051416726111
 30
0
 11
-2097.311015449786
 21
-1234.097983416021
 31
0
 12
-2097.316161239345
 22
-1234.035753106151
 32
0
 13
-2097.316161239345
 23
-1234.035753106151
 33
0
  0
MTEXT
  5
185
100
AcDbEntity
  8
frame
  6
CONTINUOUS
 62
    0
370
   -2
100
AcDbMText
 10
-2231.789620471897
 20
-1239.542418403928
 30
0
 40
10
 41
36.66666666666791
 71
    5
 72
    1
  1
269.31
  7
standard
210
0
220
0
230
1
 50
4.727001880773894
 73
    2
 44
1
  0
ENDBLK
  5
B3
330
B1
100
AcDbEntity
  8
0
100
AcDbBlockEnd
  0
BLOCK
  5
B5
330
B4
100
AcDbEntity
  8
0
100
AcDbBlockBegin
  2
*D6
 70
    1
 10
0
 20
0
  3
*D6
  1

  0
LINE
  5
186
100
AcDbEntity
  8
dimension
  6
ByBlock
 62
    0
370
   -2
100
AcDbLine
 10
-2887.500000010455
 20
-1160
 11
-2107.402994822291
 21
-1160
  0
SOLID
  5
187
100
AcDbEntity
  8
dimension
  6
ByBlock
 62
    0
370
   -2
100
AcDbTrace
 10
-2887.500000010455
 20
-1160
 30
0
 11
-2887.312500010455
 21
-1159.968778650667
 31
0
 12
-2887.312500010455
 22
-1160.031221349333
 32
0
 13
-2887.312500010455
 23
-1160.031221349333
 33
0
  0
SOLID
  5
188
100
AcDbEntity
  8
dimension
  6
ByBlock
 62
    0
370
   -2
100
AcDbTrace
 10
-2107.402994822291
 20
-1160
 30
0
 11
-2107.590494822291
 21
-1160.031221349333
 31
0
 12
-2107.590494822291
 22
-1159.968778650667
 32
0
 13
-2107.590494822291
 23
-1159.968778650667
 33
0
  0
MTEXT
  5
189
100
AcDbEntity
  8
dimension
  6
CONTINUOUS
 62
    0
370
   -2
100
AcDbMText
 10
-2497.451497416373
 20
-1154.375
 30
0
 40
10
 41
36.66666666666667
 71
    5
 72
    1
  1
780.10
  7
standard
210
0
220
0
230
1
 50
0
 73
    2
 44
1
  0
LINE
  5
18A
100
AcDbEntity
  8
dimension
  6
ByBlock
 62
    0
370
   -2
100
AcDbLine
 10
-2887.500000010455
 20
-932.244863026052
 11
-2887.500000010455
 21
-1160.396
  0
LINE
  5
18B
100
AcDbEntity
  8
dimension
  6
ByBlock
 62
    0
370
   -2
100
AcDbLine
 10
-2107.402994822291
 20
-835.3676291786223
 11
-2107.402994822291
 21
-1160.396
  0
ENDBLK
  5
B6
330
B4
100
AcDbEntity
  8
0
100
AcDbBlockEnd
  0
BLOCK
  5
B8
330
B7
100
AcDbEntity
  8
0
100
AcDbBlockBegin
  2
*D27
 70
    1
 10
0
 20
0
  3
*D27
  1

  0
LINE
  5
18C
100
AcDbEntity
  8
0
  6
ByBlock
 62
    0
370
   -2
100
AcDbLine
 10
-1820.380886990501
 20
-1671.212446205
 11
-1820.380912237355
 21
-2000.395990987952
  0
LINE
  5
18D
100
AcDbEntity
  8
0
  6
ByBlock
 62
    0
370
   -2
100
AcDbLine
 10
-1399.169015440546
 20
-1671.212478510001
 11
-1399.1690406874
 21
-2000.396023292952
  0
LINE
  5
18E
100
AcDbEntity
  8
0
  6
ByBlock
 62
    0
370
   -2
100
AcDbLine
 10
-1820.380912206984
 20
-1999.999990987952
 11
-1399.169040657028
 21
-2000.000023292952
  0
SOLID
  5
18F
100
AcDbEntity
  8
0
  6
ByBlock
 62
    0
370
   -2
100
AcDbTrace
 10
-1820.380912206984
 20
-1999.999990987952
 30
0
 11
-1820.193412204589
 21
-1999.968769652999
 31
0
 12
-1820.193412209378
 22
-2000.031212351665
 32
0
 13
-1820.193412209378
 23
-2000.031212351665
 33
0
  0
SOLID
  5
190
100
AcDbEntity
  8
0
  6
ByBlock
 62
    0
370
   -2
100
AcDbTrace
 10
-1399.169040657028
 20
-2000.000023292952
 30
0
 11
-1399.356540659423
 21
-2000.031244627904
 31
0
 12
-1399.356540654634
 22
-1999.968801929239
 32
0
 13
-1399.356540654634
 23
-1999.968801929239
 33
0
  0
MTEXT
  5
191
100
AcDbEntity
  8
0
  6
CONTINUOUS
 62
    0
370
   -2
100
AcDbMText
 10
-1609.774976237682
 20
-1994.375007140452
 30
0
 40
10
 41
35.55555555555556
 71
    5
 72
    1
  1
421.21
  7
standard
210
0
220
0
230
1
 50
359.999995605679
 73
    2
 44
1
  0
ENDBLK
  5
B9
330
B7
100
AcDbEntity
  8
0
100
AcDbBlockEnd
  0
BLOCK
  5
BB
330
BA
100
AcDbEntity
  8
0
100
AcDbBlockBegin
  2
SYMBOL_5_BL0
 70
    0
 10
15.5433603808
 20
2.1154884008
  3
SYMBOL_5_BL0
  1

  0
CIRCLE
  5
192
100
AcDbEntity
  8
0
  6
CONTINUOUS
 62
    2
370
   -1
100
AcDbCircle
 10
15.8644337823
 20
2.1227812843
 40
0.12
  0
CIRCLE
  5
193
100
AcDbEntity
  8
0
  6
CONTINUOUS
 62
    2
370
   -1
100
AcDbCircle
 10
15.8631786092
 20
2.1226636297
 40
0.24
  0
LINE
  5
194
100
AcDbEntity
  8
0
  6
CONTINUOUS
 62
    2
370
   -1
100
AcDbLine
 10
15.4771341555
 20
2.0010028504
 11
15.4771341555
 21
2.2389093342
  0
LINE
  5
195
100
AcDbEntity
  8
0
  6
CONTINUOUS
 62
    2
370
   -1
100
AcDbLine
 10
15.0139789889
 20
2.3582499293
 11
15.0139789889
 21
1.8780562062
  0
LINE
  5
196
100
AcDbEntity
  8
0
  6
CONTINUOUS
 62
    2
370
   -1
100
AcDbLine
 10
15.4771341555
 20
2.2389093342
 11
15.0139789889
 21
2.3582499293
  0
LINE
  5
197
100
AcDbEntity
  8
0
  6
CONTINUOUS
 62
    2
370
   -1
100
AcDbLine
 10
15.4771341555
 20
2.0010028504
 11
15.0139789889
 21
1.8780562062
  0
LINE
  5
198
100
AcDbEntity
  8
0
  6
CONTINUOUS
 62
    2
370
   -1
100
AcDbLine
 10
15.8679654057
 20
1.8038460121
 11
15.8671968671
 21
2.4271307895
  0
ENDBLK
  5
BC
330
BA
100
AcDbEntity
  8
0
100
AcDbBlockEnd
  0
BLOCK
  5
BE
330
BD
100
AcDbEntity
  8
0
100
AcDbBlockBegin
  2
*T1
 70
    0
 10
0
 20
0
  3
*T1
  1

  0
LINE
  5
199
100
AcDbEntity
  8
0
  6
CONTINUOUS
 62
    2
370
   -1
100
AcDbLine
 10
0
 20
0
 11
4
 21
0
  0
LINE
  5
19A
100
AcDbEntity
  8
0
  6
CONTINUOUS
 62
    2
370
   -1
100
AcDbLine
 10
0
 20
0
 11
0
 21
-0.312
  0
LINE
  5
19B
100
AcDbEntity
  8
0
  6
CONTINUOUS
 62
    2
370
   -1
100
AcDbLine
 10
0
 20
-0.312
 11
4
 21
-0.312
  0
LINE
  5
19C
100
AcDbEntity
  8
0
  6
CONTINUOUS
 62
    2
370
   -1
100
AcDbLine
 10
4
 20
0
 11
4
 21
-0.312
  0
ENDBLK
  5
BF
330
BD
100
AcDbEntity
  8
0
100
AcDbBlockEnd
  0
BLOCK
  5
C1
330
C0
100
AcDbEntity
  8
0
100
AcDbBlockBegin
  2
*T2
 70
    0
 10
0
 20
0
  3
*T2
  1

  0
LINE
  5
19D
100
AcDbEntity
  8
0
  6
CONTINUOUS
 62
    2
370
   -1
100
AcDbLine
 10
0
 20
0
 11
4.688
 21
0
  0
LINE
  5
19E
100
AcDbEntity
  8
0
  6
CONTINUOUS
 62
    2
370
   -1
100
AcDbLine
 10
0
 20
0
 11
0
 21
-0.5
  0
LINE
  5
19F
100
AcDbEntity
  8
0
  6
CONTINUOUS
 62
    2
370
   -1
100
AcDbLine
 10
0
 20
-0.5
 11
4.688
 21
-0.5
  0
LINE
  5
1A0
100
AcDbEntity
  8
0
  6
CONTINUOUS
 62
    2
370
   -1
100
AcDbLine
 10
4.688
 20
0
 11
4.688
 21
-0.5
  0
ENDBLK
  5
C2
330
C0
100
AcDbEntity
  8
0
100
AcDbBlockEnd
  0
BLOCK
  5
C4
330
C3
100
AcDbEntity
  8
0
100
AcDbBlockBegin
  2
*T3
 70
    0
 10
0
 20
0
  3
*T3
  1

  0
LINE
  5
1A1
100
AcDbEntity
  8
0
  6
CONTINUOUS
 62
    2
370
   -1
100
AcDbLine
 10
0
 20
0
 11
2.625
 21
0
  0
LINE
  5
1A2
100
AcDbEntity
  8
0
  6
CONTINUOUS
 62
    2
370
   -1
100
AcDbLine
 10
0
 20
0
 11
0
 21
-0.5
  0
LINE
  5
1A3
100
AcDbEntity
  8
0
  6
CONTINUOUS
 62
    2
370
   -1
100
AcDbLine
 10
0
 20
-0.5
 11
2.625
 21
-0.5
  0
LINE
  5
1A4
100
AcDbEntity
  8
0
  6
CONTINUOUS
 62
    2
370
   -1
100
AcDbLine
 10
2.625
 20
0
 11
2.625
 21
-0.5
  0
ENDBLK
  5
C5
330
C3
100
AcDbEntity
  8
0
100
AcDbBlockEnd
  0
BLOCK
  5
C7
330
C6
100
AcDbEntity
  8
0
100
AcDbBlockBegin
  2
batteryT
 70
    0
 10
0
 20
0
  3
batteryT
  1

  0
LINE
  5
1A5
100
AcDbEntity
  8
internals
  6
ByLayer
 62
  256
370
   -1
100
AcDbLine
 10
0
 20
0
 11
200
 21
0
  0
LINE
  5
1A6
100
AcDbEntity
  8
internals
  6
ByLayer
 62
  256
370
   -1
100
AcDbLine
 10
0
 20
0
 11
0
 21
-131
  0
LINE
  5
1A7
100
AcDbEntity
  8
internals
  6
ByLayer
 62
  256
370
   -1
100
AcDbLine
 10
200
 20
0
 11
200
 21
-131
  0
LINE
  5
1A8
100
AcDbEntity
  8
internals
  6
ByLayer
 62
  256
370
   -1
100
AcDbLine
 10
0
 20
-131
 11
200
 21
-131
  0
ENDBLK
  5
C8
330
C6
100
AcDbEntity
  8
0
100
AcDbBlockEnd
  0
BLOCK
  5
CA
330
C9
100
AcDbEntity
  8
0
100
AcDbBlockBegin
  2
batteryS
 70
    0
 10
0
 20
0
  3
batteryS
  1

  0
LINE
  5
1A9
100
AcDbEntity
  8
internals
  6
ByLayer
 62
  256
370
   -1
100
AcDbLine
 10
0
 20
-161
 11
200
 21
-161
  0
LINE
  5
1AA
100
AcDbEntity
  8
internals
  6
ByLayer
 62
  256
370
   -1
100
AcDbLine
 10
200
 20
-161
 11
200
 21
0
  0
LINE
  5
1AB
100
AcDbEntity
  8
internals
  6
ByLayer
 62
  256
370
   -1
100
AcDbLine
 10
0
 20
-161
 11
0
 21
0
  0
LINE
  5
1AC
100
AcDbEntity
  8
internals
  6
ByLayer
 62
  256
370
   -1
100
AcDbLine
 10
0
 20
0
 11
200
 21
0
  0
ENDBLK
  5
CB
330
C9
100
AcDbEntity
  8
0
100
AcDbBlockEnd
  0
ENDSEC
  0
SECTION
  2
ENTITIES
  0
LINE
  5
1AD
100
AcDbEntity
  8
0
  6
CONTINUOUS
 62
    7
370
   -1
100
AcDbLine
 10
-1056.44385631
 20
545.5516411300003
 11
-2134.44385631
 21
545.5516411300003
  0
LINE
  5
1AE
100
AcDbEntity
  8
0
  6
CONTINUOUS
 62
    7
370
   -1
100
AcDbLine
 10
-3000
 20
400
 11
-2999.99999965
 21
88.24903467000047
  0
LINE
  5
1AF
100
AcDbEntity
  8
0
  6
CONTINUOUS
 62
    7
370
   -1
100
AcDbLine
 10
-2397.2704642
 20
-6.803896800000189
 11
-2397.27046483
 21
13.0303157099998
  0
LINE
  5
1B0
100
AcDbEntity
  8
0
  6
CONTINUOUS
 62
    7
370
   -1
100
AcDbLine
 10
-2397.27046483
 20
475.21863587
 11
-2397.27046413
 21
495.0616636900006
  0
LINE
  5
1B1
100
AcDbEntity
  8
0
  6
CONTINUOUS
 62
    7
370
   -1
100
AcDbLine
 10
-2278.39955785
 20
-52.43830058000026
 11
-2278.39955785
 21
-62.48587272999941
  0
LINE
  5
1B2
100
AcDbEntity
  8
0
  6
CONTINUOUS
 62
    7
370
   -1
100
AcDbLine
 10
-2278.39955785
 20
544.3874868800003
 11
-2278.39955785
 21
554.4350590299995
  0
LINE
  5
1B3
100
AcDbEntity
  8
0
  6
CONTINUOUS
 62
    7
370
   -1
100
AcDbLine
 10
-2263.32819959
 20
-52.43830058000026
 11
-2263.32819959
 21
-62.48587272999941
  0
LINE
  5
1B4
100
AcDbEntity
  8
0
  6
CONTINUOUS
 62
    7
370
   -1
100
AcDbLine
 10
-2263.32819959
 20
544.3874868800003
 11
-2263.32819959
 21
554.4350590299995
  0
LINE
  5
1B5
100
AcDbEntity
  8
0
  6
CONTINUOUS
 62
    7
370
   -1
100
AcDbLine
 10
-2169.82269064
 20
495.3137802399995
 11
-2169.82267706
 21
475.21863587
  0
LINE
  5
1B6
100
AcDbEntity
  8
0
  6
CONTINUOUS
 62
    7
370
   -1
100
AcDbLine
 10
-2169.82267706
 20
13.0303157099998
 11
-2169.82269099
 21
-7.064828659999762
  0
LINE
  5
1B7
100
AcDbEntity
  8
0
  6
CONTINUOUS
 62
    7
370
   -1
100
AcDbLine
 10
-1034.51012218
 20
-62.48587272999941
 11
-1049.58148044
 21
-62.48587272999941
  0
LINE
  5
1B8
100
AcDbEntity
  8
0
  6
CONTINUOUS
 62
    7
370
   -1
100
AcDbLine
 10
-2263.32819959
 20
-62.48587272999941
 11
-2278.39955785
 21
-62.48587272999941
  0
LINE
  5
1B9
100
AcDbEntity
  8
0
  6
CONTINUOUS
 62
    7
370
   -1
100
AcDbLine
 10
-2112.82377272
 20
-57.30268955000054
 11
-1008.04543666
 21
-57.30268955000054
  0
LINE
  5
1BA
100
AcDbEntity
  8
0
  6
CONTINUOUS
 62
    7
370
   -1
100
AcDbLine
 10
-2290.95812016
 20
-52.43830058000026
 11
-2250.76963728
 21
-52.43830058000026
  0
LINE
  5
1BB
100
AcDbEntity
  8
0
  6
CONTINUOUS
 62
    7
370
   -1
100
AcDbLine
 10
-2154.76400721
 20
-37.36694225000031
 11
-2410.86456983
 21
-37.36694225000031
  0
LINE
  5
1BC
100
AcDbEntity
  8
0
  6
CONTINUOUS
 62
    7
370
   -1
100
AcDbLine
 10
-2414.77420605
 20
-41.3503737299996
 11
-2290.95902309
 21
-52.43830058000026
  0
LINE
  5
1BD
100
AcDbEntity
  8
0
  6
CONTINUOUS
 62
    7
370
   -1
100
AcDbLine
 10
-2397.27046462
 20
5.594668609999474
 11
-2381.36018366
 21
4.028696020000268
  0
LINE
  5
1BE
100
AcDbEntity
  8
0
  6
CONTINUOUS
 62
    7
370
   -1
100
AcDbLine
 10
-2147.94552498
 20
-43.2302519399995
 11
-2250.76873442
 21
-52.43830058000026
  0
LINE
  5
1BF
100
AcDbEntity
  8
0
  6
CONTINUOUS
 62
    7
370
   -1
100
AcDbLine
 10
-2169.37787578
 20
-12.24801183999989
 11
-2397.70614588
 21
-12.24801183999989
  0
LINE
  5
1C0
100
AcDbEntity
  8
0
  6
CONTINUOUS
 62
    7
370
   -1
100
AcDbLine
 10
-1000.46515101
 20
-7.064828659999762
 11
-1600.23658229
 21
-7.064828659999762
  0
LINE
  5
1C1
100
AcDbEntity
  8
0
  6
CONTINUOUS
 62
    7
370
   -1
100
AcDbLine
 10
-2169.82269043
 20
-7.064828659999762
 11
-1665.42057263
 21
-7.064828659999762
  0
LINE
  5
1C2
100
AcDbEntity
  8
0
  6
CONTINUOUS
 62
    7
370
   -1
100
AcDbLine
 10
-1446.26548592
 20
84.34130777000041
 11
-1085.47375035
 21
84.34130777000041
  0
LINE
  5
1C3
100
AcDbEntity
  8
0
  6
CONTINUOUS
 62
    7
370
   -1
100
AcDbLine
 10
-822.8278122500001
 20
109.48700856
 11
-1039.66386931
 21
109.48700856
  0
LINE
  5
1C4
100
AcDbEntity
  8
0
  6
CONTINUOUS
 62
    7
370
   -1
100
AcDbLine
 10
-1086.09951269
 20
118.5298235299997
 11
-1481.26237568
 21
118.5298235299997
  0
LINE
  5
1C5
100
AcDbEntity
  8
0
  6
CONTINUOUS
 62
    7
370
   -1
100
AcDbLine
 10
-1198.56594369
 20
152.1891903200002
 11
-1503.07883258
 21
152.1891903200002
  0
LINE
  5
1C6
100
AcDbEntity
  8
0
  6
CONTINUOUS
 62
    7
370
   -1
100
AcDbLine
 10
-2381.36018366
 20
4.028696020000268
 11
-2397.27046441
 21
0.7041597700003877
  0
LINE
  5
1C7
100
AcDbEntity
  8
0
  6
CONTINUOUS
 62
    7
370
   -1
100
AcDbLine
 10
-505.6737769400004
 20
237.5935538400005
 11
-817.0817981300002
 21
237.5935538400005
  0
LINE
  5
1C8
100
AcDbEntity
  8
0
  6
CONTINUOUS
 62
    7
370
   -1
100
AcDbLine
 10
-975.5086529400003
 20
237.5935538400005
 11
-1039.66386924
 21
237.5935538400005
  0
LINE
  5
1C9
100
AcDbEntity
  8
0
  6
CONTINUOUS
 62
    7
370
   -1
100
AcDbLine
 10
-1039.66386931
 20
250.6553976700004
 11
-975.5086529400003
 21
250.6553976700004
  0
LINE
  5
1CA
100
AcDbEntity
  8
0
  6
CONTINUOUS
 62
    7
370
   -1
100
AcDbLine
 10
-817.0817946299999
 20
250.6553976700004
 11
-505.6737602800002
 21
250.6553976700004
  0
LINE
  5
1CB
100
AcDbEntity
  8
0
  6
CONTINUOUS
 62
    7
370
   -1
100
AcDbLine
 10
-1535.0177288
 20
7.77889155999992
 11
-1535.0177288
 21
126.7110781500006
  0
LINE
  5
1CC
100
AcDbEntity
  8
0
  6
CONTINUOUS
 62
    7
370
   -1
100
AcDbLine
 10
-1535.0177288
 20
361.5111029799999
 11
-1535.0177288
 21
480.4700599499998
  0
LINE
  5
1CD
100
AcDbEntity
  8
0
  6
CONTINUOUS
 62
    7
370
   -1
100
AcDbLine
 10
-1503.06505917
 20
336.0597611899996
 11
-1198.56594369
 21
336.0597611899996
  0
LINE
  5
1CE
100
AcDbEntity
  8
0
  6
CONTINUOUS
 62
    7
370
   -1
100
AcDbLine
 10
-2369.3222187
 20
485.4050945999999
 11
-2397.27046427
 21
491.2450265299997
  0
LINE
  5
1CF
100
AcDbEntity
  8
0
  6
CONTINUOUS
 62
    7
370
   -1
100
AcDbLine
 10
-1500.62275364
 20
79.52301967999972
 11
-1473.57460328
 21
109.48700856
  0
LINE
  5
1D0
100
AcDbEntity
  8
0
  6
CONTINUOUS
 62
    7
370
   -1
100
AcDbLine
 10
-1481.24094224
 20
369.71912805
 11
-1086.13362621
 21
369.71912805
  0
LINE
  5
1D1
100
AcDbEntity
  8
0
  6
CONTINUOUS
 62
    7
370
   -1
100
AcDbLine
 10
-1039.66386931
 20
378.7619429499997
 11
-822.8277944699998
 21
378.7619429499997
  0
LINE
  5
1D2
100
AcDbEntity
  8
0
  6
CONTINUOUS
 62
    7
370
   -1
100
AcDbLine
 10
-1085.47375035
 20
403.8808734300002
 11
-1446.26548592
 21
403.8808734300002
  0
LINE
  5
1D3
100
AcDbEntity
  8
0
  6
CONTINUOUS
 62
    7
370
   -1
100
AcDbLine
 10
-2170.98772458
 20
485.7013542700004
 11
-2169.82268406
 21
485.5866849600002
  0
LINE
  5
1D4
100
AcDbEntity
  8
0
  6
CONTINUOUS
 62
    7
370
   -1
100
AcDbLine
 10
-1473.55044229
 20
378.7619429499997
 11
-1503.38373284
 21
405.6921134899998
  0
LINE
  5
1D5
100
AcDbEntity
  8
0
  6
CONTINUOUS
 62
    7
370
   -1
100
AcDbLine
 10
-1382.26157917
 20
-7.064828659999762
 11
-1382.20283251
 21
-57.30268955000054
  0
LINE
  5
1D6
100
AcDbEntity
  8
0
  6
CONTINUOUS
 62
    7
370
   -1
100
AcDbLine
 10
-1382.26157917
 20
-7.064828659999762
 11
-1382.26157917
 21
84.34130777000041
  0
LINE
  5
1D7
100
AcDbEntity
  8
0
  6
CONTINUOUS
 62
    7
370
   -1
100
AcDbLine
 10
-1382.26157917
 20
403.8808734300002
 11
-1382.26157917
 21
495.3137802399995
  0
LINE
  5
1D8
100
AcDbEntity
  8
0
  6
CONTINUOUS
 62
    7
370
   -1
100
AcDbLine
 10
-1382.26157917
 20
495.3137802399995
 11
-1382.20283251
 21
545.5516411300003
  0
LINE
  5
1D9
100
AcDbEntity
  8
0
  6
CONTINUOUS
 62
    7
370
   -1
100
AcDbLine
 10
-2169.82269008
 20
495.3137802399995
 11
-1665.42057116
 21
495.3137802399995
  0
LINE
  5
1DA
100
AcDbEntity
  8
0
  6
CONTINUOUS
 62
    7
370
   -1
100
AcDbLine
 10
-1600.23658215
 20
495.3137802399995
 11
-1117.87232964
 21
495.3137802399995
  0
LINE
  5
1DB
100
AcDbEntity
  8
0
  6
CONTINUOUS
 62
    7
370
   -1
100
AcDbLine
 10
-1117.87233671
 20
495.6567617599999
 11
-910.6055618200003
 21
495.6567617599999
  0
LINE
  5
1DC
100
AcDbEntity
  8
0
  6
CONTINUOUS
 62
    7
370
   -1
100
AcDbLine
 10
-2398.47379332
 20
504.19719814
 11
-2168.53472851
 21
504.19719814
  0
LINE
  5
1DD
100
AcDbEntity
  8
0
  6
CONTINUOUS
 62
    7
370
   -1
100
AcDbLine
 10
-2414.45890806
 20
529.3161285500004
 11
-2150.64140635
 21
529.3161285500004
  0
LINE
  5
1DE
100
AcDbEntity
  8
0
  6
CONTINUOUS
 62
    7
370
   -1
100
AcDbLine
 10
-2290.95812016
 20
544.3874868800003
 11
-2250.76963728
 21
544.3874868800003
  0
LINE
  5
1DF
100
AcDbEntity
  8
0
  6
CONTINUOUS
 62
    7
370
   -1
100
AcDbLine
 10
-2112.82377377
 20
545.5516411300003
 11
-1008.04543666
 21
545.5516411300003
  0
LINE
  5
1E0
100
AcDbEntity
  8
0
  6
CONTINUOUS
 62
    7
370
   -1
100
AcDbLine
 10
-1049.58148044
 20
545.8946226499994
 11
-1034.51012218
 21
545.8946226499994
  0
LINE
  5
1E1
100
AcDbEntity
  8
0
  6
CONTINUOUS
 62
    7
370
   -1
100
AcDbLine
 10
-2143.33967289
 20
534.7669738799999
 11
-2250.76873442
 21
544.3874868800003
  0
LINE
  5
1E2
100
AcDbEntity
  8
0
  6
CONTINUOUS
 62
    7
370
   -1
100
AcDbLine
 10
-1206.57814971
 20
-7.064827959999718
 11
-1206.57814971
 21
84.34130777000041
  0
LINE
  5
1E3
100
AcDbEntity
  8
0
  6
CONTINUOUS
 62
    7
370
   -1
100
AcDbLine
 10
-1206.57814971
 20
403.8808734300002
 11
-1206.57814971
 21
495.3137800999995
  0
LINE
  5
1E4
100
AcDbEntity
  8
0
  6
CONTINUOUS
 62
    7
370
   -1
100
AcDbLine
 10
-1198.56594369
 20
152.1891903200002
 11
-1198.56594369
 21
336.0597611899996
  0
LINE
  5
1E5
100
AcDbEntity
  8
0
  6
CONTINUOUS
 62
    7
370
   -1
100
AcDbLine
 10
-2170.98772458
 20
485.7013542700004
 11
-2169.82268427
 21
485.9447955100002
  0
LINE
  5
1E6
100
AcDbEntity
  8
0
  6
CONTINUOUS
 62
    7
370
   -1
100
AcDbLine
 10
-2369.3222187
 20
485.4050945999999
 11
-2397.27046462
 21
482.6542829700003
  0
LINE
  5
1E7
100
AcDbEntity
  8
0
  6
CONTINUOUS
 62
    7
370
   -1
100
AcDbLine
 10
-2418.59255786
 20
532.9576180799994
 11
-2290.95902309
 21
544.3874868800003
  0
LINE
  5
1E8
100
AcDbEntity
  8
0
  6
CONTINUOUS
 62
    7
370
   -1
100
AcDbLine
 10
-2278.39955785
 20
554.4350590299995
 11
-2263.32819959
 21
554.4350590299995
  0
LINE
  5
1E9
100
AcDbEntity
  8
0
  6
CONTINUOUS
 62
    7
370
   -1
100
AcDbLine
 10
-1100.4388365
 20
118.5298235299997
 11
-1100.4388365
 21
124.8528782400001
  0
LINE
  5
1EA
100
AcDbEntity
  8
0
  6
CONTINUOUS
 62
    7
370
   -1
100
AcDbLine
 10
-1100.4388365
 20
363.3906841100002
 11
-1100.4388365
 21
369.71912805
  0
LINE
  5
1EB
100
AcDbEntity
  8
0
  6
CONTINUOUS
 62
    7
370
   -1
100
AcDbLine
 10
-1049.58148044
 20
-57.30268955000054
 11
-1049.58148044
 21
-62.48587272999941
  0
LINE
  5
1EC
100
AcDbEntity
  8
0
  6
CONTINUOUS
 62
    7
370
   -1
100
AcDbLine
 10
-1049.58148044
 20
545.5516411300003
 11
-1049.58148044
 21
545.8946226499994
  0
LINE
  5
1ED
100
AcDbEntity
  8
0
  6
CONTINUOUS
 62
    7
370
   -1
100
AcDbLine
 10
-1039.66386931
 20
109.48700856
 11
-1039.66386931
 21
378.7619429499997
  0
LINE
  5
1EE
100
AcDbEntity
  8
0
  6
CONTINUOUS
 62
    7
370
   -1
100
AcDbLine
 10
-1034.51012218
 20
-57.30268955000054
 11
-1034.51012218
 21
-62.48587272999941
  0
LINE
  5
1EF
100
AcDbEntity
  8
0
  6
CONTINUOUS
 62
    7
370
   -1
100
AcDbLine
 10
-1034.51012218
 20
545.5516411300003
 11
-1034.51012218
 21
545.8946226499994
  0
LINE
  5
1F0
100
AcDbEntity
  8
0
  6
CONTINUOUS
 62
    7
370
   -1
100
AcDbLine
 10
-910.7464584500001
 20
492.8135538400001
 11
-910.7464672000003
 21
490.28999413
  0
LINE
  5
1F1
100
AcDbEntity
  8
0
  6
CONTINUOUS
 62
    7
370
   -1
100
AcDbLine
 10
-1000.47042026
 20
-8.93565586999938
 11
-1000.46515913
 21
-7.064828659999762
  0
LINE
  5
1F2
100
AcDbEntity
  8
0
  6
CONTINUOUS
 62
    7
370
   -1
100
AcDbLine
 10
-1000.48618972
 20
-10.80388831999937
 11
-1000.47042026
 21
-8.93565586999938
  0
LINE
  5
1F3
100
AcDbEntity
  8
0
  6
CONTINUOUS
 62
    7
370
   -1
100
AcDbLine
 10
-505.6737817000002
 20
237.5935538400005
 11
-505.6737711999999
 21
250.6553976700004
  0
LINE
  5
1F4
100
AcDbEntity
  8
0
  6
CONTINUOUS
 62
    7
370
   -1
100
AcDbLine
 10
-188.23314994
 20
270.9426721599995
 11
-188.2331492399999
 21
217.3062979000006
  0
ARC
  5
1F5
100
AcDbEntity
  8
0
  6
CONTINUOUS
 62
    7
370
   -1
100
AcDbCircle
 10
-2283.54657098
 20
-1657.17278557
 40
2135.4218081
100
AcDbArc
 50
86.94721524169999
 51
93.05278475830001
  0
ARC
  5
1F6
100
AcDbEntity
  8
0
  6
CONTINUOUS
 62
    7
370
   -1
100
AcDbCircle
 10
-2283.54657098
 20
2145.42173715
 40
2135.4218081
100
AcDbArc
 50
266.9472152417
 51
273.0527847583
  0
ARC
  5
1F7
100
AcDbEntity
  8
0
  6
CONTINUOUS
 62
    7
370
   -1
100
AcDbCircle
 10
-999.7839943800004
 20
-1103.35269945
 40
1598.6476758
100
AcDbArc
 50
81.4037294484
 51
86.8072288179
  0
ARC
  5
1F8
100
AcDbEntity
  8
0
  6
CONTINUOUS
 62
    7
370
   -1
100
AcDbCircle
 10
-1008.04543666
 20
-1046.98854916
 40
1592.54019029
100
AcDbArc
 50
81.2432227605
 51
90
  0
ARC
  5
1F9
100
AcDbEntity
  8
0
  6
CONTINUOUS
 62
    7
370
   -1
100
AcDbCircle
 10
-1413.50307176
 20
-772.2567560899996
 40
1221.02537207
100
AcDbArc
 50
70.5041503815
 51
74.41600856620001
  0
ARC
  5
1FA
100
AcDbEntity
  8
0
  6
CONTINUOUS
 62
    7
370
   -1
100
AcDbCircle
 10
-1000.34068968
 20
1597.337009050001
 40
1604.40184261
100
AcDbArc
 50
269.9955552855
 51
278.5853132224
  0
ARC
  5
1FB
100
AcDbEntity
  8
0
  6
CONTINUOUS
 62
    7
370
   -1
100
AcDbCircle
 10
-1008.04543666
 20
1535.23750074
 40
1592.54019029
100
AcDbArc
 50
270
 51
278.7567772395
  0
ARC
  5
1FC
100
AcDbEntity
  8
0
  6
CONTINUOUS
 62
    7
370
   -1
100
AcDbCircle
 10
-1413.5042514
 20
1260.48283608
 40
1221.02944453
100
AcDbArc
 50
285.5839956019
 51
289.4996048074
  0
ARC
  5
1FD
100
AcDbEntity
  8
0
  6
CONTINUOUS
 62
    7
370
   -1
100
AcDbCircle
 10
-1324.38378934
 20
244.1109457700002
 40
241.1419178
100
AcDbArc
 50
137.9278003979
 51
223.0421278804
  0
ARC
  5
1FE
100
AcDbEntity
  8
0
  6
CONTINUOUS
 62
    7
370
   -1
100
AcDbCircle
 10
-1324.38378934
 20
244.1109457700002
 40
205.47305681
100
AcDbArc
 50
137.9278014975
 51
222.1913724439
  0
ARC
  5
1FF
100
AcDbEntity
  8
0
  6
CONTINUOUS
 62
    7
370
   -1
100
AcDbCircle
 10
-1324.38398954
 20
244.1110905999997
 40
200.95144356
100
AcDbArc
 50
127.3384525005
 51
232.6615474995
  0
ARC
  5
200
100
AcDbEntity
  8
0
  6
CONTINUOUS
 62
    7
370
   -1
100
AcDbCircle
 10
-1039.66386931
 20
244.1244757900005
 40
133.9504369
100
AcDbArc
 50
90
 51
270
  0
SPLINE
  5
201
100
AcDbEntity
  8
0
  6
CONTINUOUS
 62
    7
370
   -1
100
AcDbSpline
210
0
220
0
230
0
 70
    8
 71
    3
 72
    8
 73
    4
 74
    0
 42
1e-07
 43
1e-07
 40
0
 40
0
 40
0
 40
0
 40
1
 40
1
 40
1
 40
1
 10
-2999.99999965
 20
88.24903292000033
 30
0
 10
-3000.00000028
 20
81.28085134999947
 30
0
 10
-2999.55967816
 20
74.29230586999984
 30
0
 10
-2998.58766124
 20
67.39225235999947
 30
0
  0
SPLINE
  5
202
100
AcDbEntity
  8
0
  6
CONTINUOUS
 62
    7
370
   -1
100
AcDbSpline
210
0
220
0
230
0
 70
    8
 71
    3
 72
    8
 73
    4
 74
    0
 42
1e-07
 43
1e-07
 40
0
 40
0
 40
0
 40
0
 40
1
 40
1
 40
1
 40
1
 10
-2998.58773537
 20
420.8562564699997
 30
0
 10
-2999.55969426
 20
413.9563677400005
 30
0
 10
-2999.999993
 20
406.9679961400003
 30
0
 10
-3000
 20
399.9999857900001
 30
0
  0
SPLINE
  5
203
100
AcDbEntity
  8
0
  6
CONTINUOUS
 62
    7
370
   -1
100
AcDbSpline
210
0
220
0
230
0
 70
    8
 71
    3
 72
    8
 73
    4
 74
    0
 42
1e-07
 43
1e-07
 40
0
 40
0
 40
0
 40
0
 40
1
 40
1
 40
1
 40
1
 10
-188.23314994
 20
270.9426721599995
 30
0
 10
-188.2331558899998
 20
274.7361921000002
 30
0
 10
-188.3765951299999
 20
278.7657606499994
 30
0
 10
-190.0285063000003
 20
282.1807252099995
 30
0
  0
SPLINE
  5
204
100
AcDbEntity
  8
0
  6
CONTINUOUS
 62
    7
370
   -1
100
AcDbSpline
210
0
220
0
230
0
 70
    8
 71
    3
 72
    8
 73
    4
 74
    0
 42
1e-07
 43
1e-07
 40
0
 40
0
 40
0
 40
0
 40
1
 40
1
 40
1
 40
1
 10
-189.5214127900003
 20
205.7430449400003
 30
0
 10
-188.7307430500003
 20
209.4616132900006
 30
0
 10
-187.87854863
 20
213.43335407
 30
0
 10
-188.7884357200003
 20
217.1245617999995
 30
0
  0
SPLINE
  5
205
100
AcDbEntity
  8
0
  6
CONTINUOUS
 62
    7
370
   -1
100
AcDbSpline
210
0
220
0
230
0
 70
    8
 71
    3
 72
    9
 73
    5
 74
    0
 42
1e-07
 43
1e-07
 40
0
 40
0
 40
0
 40
0
 40
0.5
 40
1
 40
1
 40
1
 40
1
 10
-341.6096934699999
 20
85.67080230000033
 30
0
 10
-405.88585696
 20
57.26285566999945
 30
0
 10
-544.58191418
 20
5.651583719999735
 30
0
 10
-689.0641341599999
 20
-26.95051195999963
 30
0
 10
-765.5966505000004
 20
-38.73926018999953
 30
0
  0
SPLINE
  5
206
100
AcDbEntity
  8
0
  6
CONTINUOUS
 62
    7
370
   -1
100
AcDbSpline
210
0
220
0
230
0
 70
    8
 71
    3
 72
    9
 73
    5
 74
    0
 42
1e-07
 43
1e-07
 40
0
 40
0
 40
0
 40
0
 40
0.5
 40
1
 40
1
 40
1
 40
1
 10
-2910.13117571
 20
-19.16378532000033
 30
0
 10
-2808.79388875
 20
-55.48420602999971
 30
0
 10
-2657.51709364
 20
-55.71962792999994
 30
0
 10
-2510.85695834
 20
-56.48617209999946
 30
0
 10
-2472.81663896
 20
-56.67431039999934
 30
0
  0
LINE
  5
207
100
AcDbEntity
  8
0
  6
CONTINUOUS
 62
    7
370
   -1
100
AcDbLine
 10
-2472.81663896
 20
-56.67431039999934
 11
-2454.78616475
 21
-56.76249003000004
  0
LINE
  5
208
100
AcDbEntity
  8
0
  6
CONTINUOUS
 62
    7
370
   -1
100
AcDbLine
 10
-2454.78616475
 20
-56.76249003000004
 11
-2445.41303175
 21
-56.80731375999954
  0
LINE
  5
209
100
AcDbEntity
  8
0
  6
CONTINUOUS
 62
    7
370
   -1
100
AcDbLine
 10
-2472.84297744
 20
544.9295654799996
 11
-2454.80045882
 21
545.0186834599997
  0
LINE
  5
20A
100
AcDbEntity
  8
0
  6
CONTINUOUS
 62
    7
370
   -1
100
AcDbLine
 10
-2454.80045882
 20
545.0186834599997
 11
-2445.41287404
 21
545.0639724100004
  0
SPLINE
  5
20B
100
AcDbEntity
  8
0
  6
CONTINUOUS
 62
    7
370
   -1
100
AcDbSpline
210
0
220
0
230
0
 70
    8
 71
    3
 72
    9
 73
    5
 74
    0
 42
1e-07
 43
1e-07
 40
0
 40
0
 40
0
 40
0
 40
0.5
 40
1
 40
1
 40
1
 40
1
 10
-2910.1308514
 20
507.4128089299999
 30
0
 10
-2808.79364998
 20
543.7324149100002
 30
0
 10
-2650.43198295
 20
543.9731629699996
 30
0
 10
-2497.12953533
 20
544.8135699500003
 30
0
 10
-2452.29912719
 20
545.0308350400004
 30
0
  0
SPLINE
  5
20C
100
AcDbEntity
  8
0
  6
CONTINUOUS
 62
    7
370
   -1
100
AcDbSpline
210
0
220
0
230
0
 70
    8
 71
    3
 72
    9
 73
    5
 74
    0
 42
1e-07
 43
1e-07
 40
0
 40
0
 40
0
 40
0
 40
0.5
 40
1
 40
1
 40
1
 40
1
 10
-765.5966505000004
 20
526.9882117000005
 30
0
 10
-689.0641341599999
 20
515.1994635400007
 30
0
 10
-544.58191418
 20
482.5973678600001
 30
0
 10
-405.88585696
 20
430.9860959100004
 30
0
 10
-341.6096934699999
 20
402.5781492799995
 30
0
  0
SPLINE
  5
20D
100
AcDbEntity
  8
0
  6
CONTINUOUS
 62
    7
370
   -1
100
AcDbSpline
210
0
220
0
230
0
 70
    8
 71
    3
 72
    9
 73
    5
 74
    0
 42
1e-07
 43
1e-07
 40
0
 40
0
 40
0
 40
0
 40
0.5
 40
1
 40
1
 40
1
 40
1
 10
-2445.41313556
 20
-56.80731333999955
 30
0
 10
-2435.27731343
 20
-56.85532305000027
 30
0
 10
-2412.92258152
 20
-43.35929896999943
 30
0
 10
-2397.2704642
 20
-20.98455118999976
 30
0
 10
-2397.2704642
 20
-6.803896800000189
 30
0
  0
SPLINE
  5
20E
100
AcDbEntity
  8
0
  6
CONTINUOUS
 62
    7
370
   -1
100
AcDbSpline
210
0
220
0
230
0
 70
    8
 71
    3
 72
    9
 73
    5
 74
    0
 42
1e-07
 43
1e-07
 40
0
 40
0
 40
0
 40
0
 40
0.5
 40
1
 40
1
 40
1
 40
1
 10
-2169.82269099
 20
-7.064828659999762
 30
0
 10
-2169.82269099
 20
-21.73736422999968
 30
0
 10
-2150.09440549
 20
-45.72766580999996
 30
0
 10
-2124.83447674
 20
-57.30268955000054
 30
0
 10
-2112.82377272
 20
-57.30268955000054
 30
0
  0
SPLINE
  5
20F
100
AcDbEntity
  8
0
  6
CONTINUOUS
 62
    7
370
   -1
100
AcDbSpline
210
0
220
0
230
0
 70
    8
 71
    3
 72
   11
 73
    7
 74
    0
 42
1e-07
 43
1e-07
 40
0
 40
0
 40
0
 40
0
 40
0.25
 40
0.5
 40
0.75
 40
1
 40
1
 40
1
 40
1
 10
-189.5214141899997
 20
205.7430449400003
 30
0
 10
-191.2392412800003
 20
197.6639981599994
 30
0
 10
-200.0530863900002
 20
182.9911562700003
 30
0
 10
-222.0118312400001
 20
158.53357942
 30
0
 10
-267.5875281900004
 20
122.4853106599998
 30
0
 10
-311.4528946299998
 20
98.99846791000027
 30
0
 10
-341.6097946900002
 20
85.67103127000053
 30
0
  0
SPLINE
  5
210
100
AcDbEntity
  8
0
  6
CONTINUOUS
 62
    7
370
   -1
100
AcDbSpline
210
0
220
0
230
0
 70
    8
 71
    3
 72
    9
 73
    5
 74
    0
 42
1e-07
 43
1e-07
 40
0
 40
0
 40
0
 40
0
 40
0.5
 40
1
 40
1
 40
1
 40
1
 10
-2910.13111117
 20
-19.16360528000035
 30
0
 10
-2940.06446357
 20
-8.434926060000521
 30
0
 10
-2980.08551709
 20
16.2332925500001
 30
0
 10
-2997.08824696
 20
56.74842307999961
 30
0
 10
-2998.58765312
 20
67.39225235999947
 30
0
  0
SPLINE
  5
211
100
AcDbEntity
  8
0
  6
CONTINUOUS
 62
    7
370
   -1
100
AcDbSpline
210
0
220
0
230
0
 70
    8
 71
    3
 72
   11
 73
    7
 74
    0
 42
1e-07
 43
1e-07
 40
0
 40
0
 40
0
 40
0
 40
0.25
 40
0.5
 40
0.75
 40
1
 40
1
 40
1
 40
1
 10
-341.6093291200002
 20
402.5789738100005
 30
0
 10
-311.4525099800004
 20
389.2512138400002
 30
0
 10
-267.5873046099999
 20
365.7639183300006
 30
0
 10
-222.0117842
 20
329.7153239999994
 30
0
 10
-200.0530730200003
 20
305.2576783399998
 30
0
 10
-191.2392699100002
 20
290.5848134199999
 30
0
 10
-189.5214417000002
 20
282.5057639800001
 30
0
  0
SPLINE
  5
212
100
AcDbEntity
  8
0
  6
CONTINUOUS
 62
    7
370
   -1
100
AcDbSpline
210
0
220
0
230
0
 70
    8
 71
    3
 72
    9
 73
    5
 74
    0
 42
1e-07
 43
1e-07
 40
0
 40
0
 40
0
 40
0
 40
0.5
 40
1
 40
1
 40
1
 40
1
 10
-2112.82377377
 20
545.5516411300003
 30
0
 10
-2124.83453778
 20
545.5516411300003
 30
0
 10
-2150.09446268
 20
533.97656006
 30
0
 10
-2169.82269064
 20
509.9862563099995
 30
0
 10
-2169.82269064
 20
495.3137802399995
 30
0
  0
SPLINE
  5
213
100
AcDbEntity
  8
0
  6
CONTINUOUS
 62
    7
370
   -1
100
AcDbSpline
210
0
220
0
230
0
 70
    8
 71
    3
 72
    9
 73
    5
 74
    0
 42
1e-07
 43
1e-07
 40
0
 40
0
 40
0
 40
0
 40
0.5
 40
1
 40
1
 40
1
 40
1
 10
-2397.27046413
 20
495.0616636900006
 30
0
 10
-2397.27046413
 20
509.2421251600005
 30
0
 10
-2412.92214255
 20
531.6168618800004
 30
0
 10
-2435.27718876
 20
545.1123826599994
 30
0
 10
-2445.41298044
 20
545.0639719200003
 30
0
  0
SPLINE
  5
214
100
AcDbEntity
  8
0
  6
CONTINUOUS
 62
    7
370
   -1
100
AcDbSpline
210
0
220
0
230
0
 70
    8
 71
    3
 72
    9
 73
    5
 74
    0
 42
1e-07
 43
1e-07
 40
0
 40
0
 40
0
 40
0
 40
0.5
 40
1
 40
1
 40
1
 40
1
 10
-2998.58771801
 20
420.8562564699997
 30
0
 10
-2997.08835567
 20
431.5001561000004
 30
0
 10
-2980.08571932
 20
472.0154873900003
 30
0
 10
-2940.0646875
 20
496.6849254699999
 30
0
 10
-2910.13080247
 20
507.4126724299997
 30
0
  0
SPLINE
  5
215
100
AcDbEntity
  8
0
  6
CONTINUOUS
 62
    7
370
   -1
100
AcDbSpline
210
0
220
0
230
0
 70
    8
 71
    3
 72
   12
 73
    8
 74
    0
 42
1e-07
 43
1e-07
 40
0
 40
0
 40
0
 40
0
 40
0.2
 40
0.4
 40
0.6000000000000001
 40
0.8
 40
1
 40
1
 40
1
 40
1
 10
-1535.0177288
 20
7.77889155999992
 30
0
 10
-1540.62946339
 20
7.143730109999581
 30
0
 10
-1551.88678905
 20
5.797639070000571
 30
0
 10
-1568.47062023
 20
3.398455710000519
 30
0
 10
-1582.914567020001
 20
0.9104298899997048
 30
0
 10
-1592.65503706
 20
-1.991664130000572
 30
0
 10
-1600.23658229
 20
-4.229914409999765
 30
0
 10
-1600.23658229
 20
-7.064828659999762
 30
0
  0
SPLINE
  5
216
100
AcDbEntity
  8
0
  6
CONTINUOUS
 62
    7
370
   -1
100
AcDbSpline
210
0
220
0
230
0
 70
    8
 71
    3
 72
   10
 73
    6
 74
    0
 42
1e-07
 43
1e-07
 40
0
 40
0
 40
0
 40
0
 40
0.3333333333333333
 40
0.6666666666666666
 40
1
 40
1
 40
1
 40
1
 10
-765.5966510600003
 20
-38.73925662000045
 30
0
 10
-763.6651012300001
 20
-38.44172840999943
 30
0
 10
-760.2041867099999
 20
-32.55576938000007
 30
0
 10
-758.3056304700001
 20
-16.20087488000036
 30
0
 10
-759.1864567100001
 20
-0.468213669999443
 30
0
 10
-760.8325541000002
 20
10.91300358999979
 30
0
  0
SPLINE
  5
217
100
AcDbEntity
  8
0
  6
CONTINUOUS
 62
    7
370
   -1
100
AcDbSpline
210
0
220
0
230
0
 70
    8
 71
    3
 72
   11
 73
    7
 74
    0
 42
1e-07
 43
1e-07
 40
0
 40
0
 40
0
 40
0
 40
0.25
 40
0.5
 40
0.75
 40
1
 40
1
 40
1
 40
1
 10
-1206.57814978
 20
-7.064828659999762
 30
0
 10
-1206.57815111
 20
-13.47455289000021
 30
0
 10
-1206.8543548
 20
-25.01771060000027
 30
0
 10
-1207.3034006
 20
-41.59914722000036
 30
0
 10
-1209.0498726
 20
-49.85108699999938
 30
0
 10
-1209.37786929
 20
-57.30269010999933
 30
0
 10
-1210.75989147
 20
-57.30269003999933
 30
0
  0
SPLINE
  5
218
100
AcDbEntity
  8
0
  6
CONTINUOUS
 62
    7
370
   -1
100
AcDbSpline
210
0
220
0
230
0
 70
    8
 71
    3
 72
    9
 73
    5
 74
    0
 42
1e-07
 43
1e-07
 40
0
 40
0
 40
0
 40
0
 40
0.5
 40
1
 40
1
 40
1
 40
1
 10
-1008.04543666
 20
-57.30267974999975
 30
0
 10
-1006.60415906
 20
-57.30267093000026
 30
0
 10
-1004.24631847
 20
-51.48696579000057
 30
0
 10
-1003.50370219
 20
-47.57903694000004
 30
0
 10
-1002.96022793
 20
-44.32076472000051
 30
0
  0
LINE
  5
219
100
AcDbEntity
  8
0
  6
CONTINUOUS
 62
    7
370
   -1
100
AcDbLine
 10
-1665.42057116
 20
495.3137802399995
 11
-1535.0177288
 21
480.4700599499998
  0
LINE
  5
21A
100
AcDbEntity
  8
0
  6
CONTINUOUS
 62
    7
370
   -1
100
AcDbLine
 10
-1535.0177288
 20
7.77889155999992
 11
-1665.42057263
 21
-7.064828659999762
  0
SPLINE
  5
21B
100
AcDbEntity
  8
0
  6
CONTINUOUS
 62
    7
370
   -1
100
AcDbSpline
210
0
220
0
230
0
 70
    8
 71
    3
 72
   13
 73
    9
 74
    0
 42
1e-07
 43
1e-07
 40
0
 40
0
 40
0
 40
0
 40
0.1666666666666667
 40
0.3333333333333333
 40
0.5
 40
0.6666666666666666
 40
0.8333333333333333
 40
1
 40
1
 40
1
 40
1
 10
-2998.58773537
 20
420.8562564699997
 30
0
 10
-2981.35934902
 20
435.1194969999998
 30
0
 10
-2939.04863365
 20
455.6396234100002
 30
0
 10
-2870.82054855
 20
475.1778566000006
 30
0
 10
-2797.01597701
 20
487.22890435
 30
0
 10
-2692.8900395
 20
494.54340294
 30
0
 10
-2559.20458816
 20
493.9564564399999
 30
0
 10
-2451.53795412
 20
494.8528160299995
 30
0
 10
-2397.27046378
 20
495.0616591400003
 30
0
  0
SPLINE
  5
21C
100
AcDbEntity
  8
0
  6
CONTINUOUS
 62
    7
370
   -1
100
AcDbSpline
210
0
220
0
230
0
 70
    8
 71
    3
 72
   12
 73
    8
 74
    0
 42
1e-07
 43
1e-07
 40
0
 40
0
 40
0
 40
0
 40
0.2
 40
0.4
 40
0.6000000000000001
 40
0.8
 40
1
 40
1
 40
1
 40
1
 10
-1535.0177288
 20
480.4700599499998
 30
0
 10
-1540.62946339
 20
481.1052214000001
 30
0
 10
-1551.88678898
 20
482.4513123000004
 30
0
 10
-1568.47062009
 20
484.8504956600004
 30
0
 10
-1582.91456688
 20
487.33852176
 30
0
 10
-1592.65503671
 20
490.2406160600003
 30
0
 10
-1600.23658215
 20
492.4788659899996
 30
0
 10
-1600.23658215
 20
495.3137802399995
 30
0
  0
SPLINE
  5
21D
100
AcDbEntity
  8
0
  6
CONTINUOUS
 62
    7
370
   -1
100
AcDbSpline
210
0
220
0
230
0
 70
    8
 71
    3
 72
    9
 73
    5
 74
    0
 42
1e-07
 43
1e-07
 40
0
 40
0
 40
0
 40
0
 40
0.5
 40
1
 40
1
 40
1
 40
1
 10
-189.52143176
 20
282.5057639800001
 30
0
 10
-232.3403319400003
 20
306.1488676600005
 30
0
 10
-413.21381389
 20
395.7039304600004
 30
0
 10
-609.6960015399998
 20
454.4728791599999
 30
0
 10
-760.83255347
 20
477.3359479899999
 30
0
  0
SPLINE
  5
21E
100
AcDbEntity
  8
0
  6
CONTINUOUS
 62
    7
370
   -1
100
AcDbSpline
210
0
220
0
230
0
 70
    8
 71
    3
 72
   13
 73
    9
 74
    0
 42
1e-07
 43
1e-07
 40
0
 40
0
 40
0
 40
0
 40
0.1666666666666667
 40
0.3333333333333333
 40
0.5
 40
0.6666666666666666
 40
0.8333333333333333
 40
1
 40
1
 40
1
 40
1
 10
-2998.58766124
 20
67.39225235999947
 30
0
 10
-2981.3593528
 20
53.12894434999998
 30
0
 10
-2939.04817172
 20
32.60964107000052
 30
0
 10
-2870.8204761
 20
13.07047954000052
 30
0
 10
-2797.01602062
 20
1.018292120000012
 30
0
 10
-2692.89013155
 20
-6.297346489999711
 30
0
 10
-2559.20459271
 20
-5.707110549999868
 30
0
 10
-2451.53795237
 20
-6.594947220000563
 30
0
 10
-2397.27046385
 20
-6.803892599999813
 30
0
  0
SPLINE
  5
21F
100
AcDbEntity
  8
0
  6
CONTINUOUS
 62
    7
370
   -1
100
AcDbSpline
210
0
220
0
230
0
 70
    8
 71
    3
 72
   13
 73
    9
 74
    0
 42
1e-07
 43
1e-07
 40
0
 40
0
 40
0
 40
0
 40
0.1666666666666667
 40
0.3333333333333333
 40
0.5
 40
0.6666666666666666
 40
0.8333333333333333
 40
1
 40
1
 40
1
 40
1
 10
-1600.23654827
 20
495.3137802399995
 30
0
 10
-1600.23654827
 20
501.7233884800003
 30
0
 10
-1600.16640274
 20
513.5188095300002
 30
0
 10
-1600.12111743
 20
527.5892915499998
 30
0
 10
-1599.79006006
 20
536.43408373
 30
0
 10
-1599.91474882
 20
541.4053307799996
 30
0
 10
-1599.29480439
 20
543.5224810599999
 30
0
 10
-1599.68620897
 20
545.5516419700003
 30
0
 10
-1599.35908525
 20
545.5516411300003
 30
0
  0
SPLINE
  5
220
100
AcDbEntity
  8
0
  6
CONTINUOUS
 62
    7
370
   -1
100
AcDbSpline
210
0
220
0
230
0
 70
    8
 71
    3
 72
    9
 73
    5
 74
    0
 42
1e-07
 43
1e-07
 40
0
 40
0
 40
0
 40
0
 40
0.5
 40
1
 40
1
 40
1
 40
1
 10
-189.5214127900003
 20
205.7430449400003
 30
0
 10
-232.3403850000003
 20
182.0997674500004
 30
0
 10
-413.21401682
 20
92.54497443000048
 30
0
 10
-609.6961602299998
 20
33.77609489000048
 30
0
 10
-760.83255347
 20
10.91300358999979
 30
0
  0
LINE
  5
221
100
AcDbEntity
  8
0
  6
CONTINUOUS
 62
    7
370
   -1
100
AcDbLine
 10
-1595.41448298
 20
545.5516411300003
 11
-1595.45854301
 21
495.3137802399995
  0
SPLINE
  5
222
100
AcDbEntity
  8
0
  6
CONTINUOUS
 62
    7
370
   -1
100
AcDbSpline
210
0
220
0
230
0
 70
    8
 71
    3
 72
   11
 73
    7
 74
    0
 42
1e-07
 43
1e-07
 40
0
 40
0
 40
0
 40
0
 40
0.25
 40
0.5
 40
0.75
 40
1
 40
1
 40
1
 40
1
 10
-1206.57814978
 20
495.3137802399995
 30
0
 10
-1206.57815104
 20
501.72350447
 30
0
 10
-1206.85435473
 20
513.26666204
 30
0
 10
-1207.30340053
 20
529.8480985900001
 30
0
 10
-1209.04987253
 20
538.1000382300003
 30
0
 10
-1209.37786929
 20
545.5516412700003
 30
0
 10
-1210.7598914
 20
545.5516412000003
 30
0
  0
SPLINE
  5
223
100
AcDbEntity
  8
0
  6
CONTINUOUS
 62
    7
370
   -1
100
AcDbSpline
210
0
220
0
230
0
 70
    8
 71
    3
 72
    9
 73
    5
 74
    0
 42
1e-07
 43
1e-07
 40
0
 40
0
 40
0
 40
0
 40
0.5
 40
1
 40
1
 40
1
 40
1
 10
-1001.63163178
 20
522.0900529800001
 30
0
 10
-1002.18123608
 20
527.8724301400002
 30
0
 10
-1003.34165282
 20
534.1546794700002
 30
0
 10
-1005.62930308
 20
545.5516237000001
 30
0
 10
-1008.04543666
 20
545.5516359499999
 30
0
  0
SPLINE
  5
224
100
AcDbEntity
  8
0
  6
CONTINUOUS
 62
    7
370
   -1
100
AcDbSpline
210
0
220
0
230
0
 70
    8
 71
    3
 72
    9
 73
    5
 74
    0
 42
1e-07
 43
1e-07
 40
0
 40
0
 40
0
 40
0
 40
0.5
 40
1
 40
1
 40
1
 40
1
 10
-1338.63292963
 20
369.71912805
 30
0
 10
-1315.74775088
 20
369.71912805
 30
0
 10
-1268.18813346
 20
358.3739152900005
 30
0
 10
-1222.61207811
 20
343.6993598700001
 30
0
 10
-1198.56594369
 20
336.0597611899996
 30
0
  0
SPLINE
  5
225
100
AcDbEntity
  8
0
  6
CONTINUOUS
 62
    7
370
   -1
100
AcDbSpline
210
0
220
0
230
0
 70
    8
 71
    3
 72
    9
 73
    5
 74
    0
 42
1e-07
 43
1e-07
 40
0
 40
0
 40
0
 40
0
 40
0.5
 40
1
 40
1
 40
1
 40
1
 10
-1198.56594369
 20
152.1891903200002
 30
0
 10
-1222.61368447
 20
144.5490814099998
 30
0
 10
-1268.18978756
 20
129.87464016
 30
0
 10
-1315.74943417
 20
118.5298235299997
 30
0
 10
-1338.63292963
 20
118.5298235299997
 30
0
  0
SPLINE
  5
226
100
AcDbEntity
  8
0
  6
CONTINUOUS
 62
    7
370
   -1
100
AcDbSpline
210
0
220
0
230
0
 70
    8
 71
    3
 72
   10
 73
    6
 74
    0
 42
1e-07
 43
1e-07
 40
0
 40
0
 40
0
 40
0
 40
0.3333333333333333
 40
0.6666666666666666
 40
1
 40
1
 40
1
 40
1
 10
-760.8325544500001
 20
477.3359479899999
 30
0
 10
-759.1864572700003
 20
488.7171646900003
 30
0
 10
-758.3056311000003
 20
504.44982513
 30
0
 10
-760.2041875499999
 20
520.8047189299997
 30
0
 10
-763.6651015800001
 20
526.6906777500002
 30
0
 10
-765.5966514099998
 20
526.98820617
 30
0
  0
LINE
  5
227
100
AcDbEntity
  8
0
  6
CONTINUOUS
 62
    7
370
   -1
100
AcDbLine
 10
-1595.41448298
 20
-57.30268955000054
 11
-1595.42916968
 21
-7.064828659999762
  0
SPLINE
  5
228
100
AcDbEntity
  8
0
  6
CONTINUOUS
 62
    7
370
   -1
100
AcDbSpline
210
0
220
0
230
0
 70
    8
 71
    3
 72
   13
 73
    9
 74
    0
 42
1e-07
 43
1e-07
 40
0
 40
0
 40
0
 40
0
 40
0.1666666666666667
 40
0.3333333333333333
 40
0.5
 40
0.6666666666666666
 40
0.8333333333333333
 40
1
 40
1
 40
1
 40
1
 10
-1600.23654827
 20
-7.064828659999762
 30
0
 10
-1600.23654827
 20
-13.47443697000057
 30
0
 10
-1600.16640372
 20
-25.26985795000041
 30
0
 10
-1600.12111785
 20
-39.34033997000006
 30
0
 10
-1599.79006062
 20
-48.18513215000024
 30
0
 10
-1599.91474938
 20
-53.15637919999983
 30
0
 10
-1599.29480502
 20
-55.27352955000015
 30
0
 10
-1599.68620897
 20
-57.30269038999938
 30
0
 10
-1599.35908525
 20
-57.30268955000054
 30
0
  0
SPLINE
  5
229
100
AcDbEntity
  8
0
  6
CONTINUOUS
 62
    7
370
   -1
100
AcDbSpline
210
0
220
0
230
0
 70
    8
 71
    3
 72
   11
 73
    7
 74
    0
 42
1e-07
 43
1e-07
 40
0
 40
0
 40
0
 40
0
 40
0.25
 40
0.5
 40
0.75
 40
1
 40
1
 40
1
 40
1
 10
-505.67377288
 20
237.5935538400005
 30
0
 10
-505.67377288
 20
221.9872592900003
 30
0
 10
-517.7964387500001
 20
190.8006226199998
 30
0
 10
-576.9953434099998
 20
140.1192106499998
 30
0
 10
-685.1793056600002
 20
112.3595341599996
 30
0
 10
-776.5262420399999
 20
109.4870138100005
 30
0
 10
-822.8277946799999
 20
109.48700856
 30
0
  0
SPLINE
  5
22A
100
AcDbEntity
  8
0
  6
CONTINUOUS
 62
    7
370
   -1
100
AcDbSpline
210
0
220
0
230
0
 70
    8
 71
    3
 72
   13
 73
    9
 74
    0
 42
1e-07
 43
1e-07
 40
0
 40
0
 40
0
 40
0
 40
0.1666666666666667
 40
0.3333333333333333
 40
0.5
 40
0.6666666666666666
 40
0.8333333333333333
 40
1
 40
1
 40
1
 40
1
 10
-822.8277946799999
 20
378.7619429499997
 30
0
 10
-791.8764979400003
 20
378.7619430199998
 30
0
 10
-737.8356624899998
 20
377.6381182900005
 30
0
 10
-661.2783129500001
 20
368.29182679
 30
0
 10
-594.5484582899999
 20
350.3989945600005
 30
0
 10
-542.8128088699999
 20
322.2046980100001
 30
0
 10
-512.3958662300003
 20
286.1742648999996
 30
0
 10
-505.6737509000001
 20
262.4697421700006
 30
0
 10
-505.6737509000001
 20
250.6553976700004
 30
0
  0
LINE
  5
22B
100
AcDbEntity
  8
frame
  6
ByLayer
 62
  256
370
   -1
100
AcDbLine
 10
-609.4450211399551
 20
495.3137802399995
 11
-609.4450211399551
 21
244.1245173350002
  0
LINE
  5
22C
100
AcDbEntity
  8
frame
  6
ByLayer
 62
  256
370
   -1
100
AcDbLine
 10
-1917.62163062
 20
495.3137802399995
 11
-609.4450211399551
 21
495.3137802399995
  0
LINE
  5
22D
100
AcDbEntity
  8
frame
  6
ByLayer
 62
  256
370
   -1
100
AcDbLine
 10
-634.4450211399551
 20
495.3137802399995
 11
-634.4450211399551
 21
244.1245173350002
  0
LINE
  5
22E
100
AcDbEntity
  8
frame
  6
ByLayer
 62
  256
370
   -1
100
AcDbLine
 10
-1910.922900809222
 20
470.3137802399995
 11
-609.4450211399551
 21
470.3137802399995
  0
LINE
  5
22F
100
AcDbEntity
  8
frame
  6
ByLayer
 62
  256
370
   -1
100
AcDbLine
 10
-2169.82269008
 20
445.3137802399995
 11
-2669.82269008
 21
445.3137802399995
  0
LINE
  5
230
100
AcDbEntity
  8
frame
  6
ByLayer
 62
  256
370
   -1
100
AcDbLine
 10
-2899.999999825
 20
244.1245173350002
 11
-2899.999999825
 21
445.3137802399995
  0
LINE
  5
231
100
AcDbEntity
  8
frame
  6
ByLayer
 62
  256
370
   -1
100
AcDbLine
 10
-2874.999999825
 20
244.1245173350002
 11
-2874.999999825
 21
445.3137802399995
  0
LINE
  5
232
100
AcDbEntity
  8
frame
  6
ByLayer
 62
  256
370
   -1
100
AcDbLine
 10
-2669.82269008
 20
445.3137802399995
 11
-2874.999999825
 21
445.3137802399995
  0
LINE
  5
233
100
AcDbEntity
  8
frame
  6
ByLayer
 62
  256
370
   -1
100
AcDbLine
 10
-2410.922900809222
 20
420.3137802399995
 11
-2874.999999825
 21
420.3137802399995
  0
LINE
  5
234
100
AcDbEntity
  8
frame
  6
ByLayer
 62
  256
370
   -1
100
AcDbLine
 10
-2874.999999825
 20
445.3137802399995
 11
-2899.999999825
 21
445.3137802399995
  0
LINE
  5
235
100
AcDbEntity
  8
frame
  6
ByLayer
 62
  256
370
   -1
100
AcDbLine
 10
-609.4450211399549
 20
-7.064745570001037
 11
-609.4450211399551
 21
244.1245173350002
  0
LINE
  5
236
100
AcDbEntity
  8
frame
  6
ByLayer
 62
  256
370
   -1
100
AcDbLine
 10
-1917.62163062
 20
-7.064745569998848
 11
-609.4450211399549
 21
-7.064745570001037
  0
LINE
  5
237
100
AcDbEntity
  8
frame
  6
ByLayer
 62
  256
370
   -1
100
AcDbLine
 10
-634.4450211399549
 20
-7.064745569997882
 11
-634.4450211399549
 21
244.1245173350002
  0
LINE
  5
238
100
AcDbEntity
  8
frame
  6
ByLayer
 62
  256
370
   -1
100
AcDbLine
 10
-1910.922900809222
 20
17.93525443000109
 11
-609.4450211399549
 21
17.93525443000362
  0
LINE
  5
239
100
AcDbEntity
  8
frame
  6
ByLayer
 62
  256
370
   -1
100
AcDbLine
 10
-2169.82269008
 20
42.93525443000115
 11
-2669.82269008
 21
42.93525443000101
  0
LINE
  5
23A
100
AcDbEntity
  8
frame
  6
ByLayer
 62
  256
370
   -1
100
AcDbLine
 10
-2899.999999825
 20
244.1245173350002
 11
-2899.999999825
 21
42.93525443000101
  0
LINE
  5
23B
100
AcDbEntity
  8
frame
  6
ByLayer
 62
  256
370
   -1
100
AcDbLine
 10
-2874.999999825
 20
244.1245173350002
 11
-2874.999999825
 21
42.93525443000104
  0
LINE
  5
23C
100
AcDbEntity
  8
frame
  6
ByLayer
 62
  256
370
   -1
100
AcDbLine
 10
-2669.82269008
 20
42.93525443000101
 11
-2874.999999825
 21
42.93525443000104
  0
LINE
  5
23D
100
AcDbEntity
  8
frame
  6
ByLayer
 62
  256
370
   -1
100
AcDbLine
 10
-2410.922900809222
 20
67.93525443000084
 11
-2874.999999825
 21
67.93525443000101
  0
LINE
  5
23E
100
AcDbEntity
  8
frame
  6
ByLayer
 62
  256
370
   -1
100
AcDbLine
 10
-2874.999999825
 20
42.93525443000104
 11
-2899.999999825
 21
42.93525443000101
  0
LINE
  5
23F
100
AcDbEntity
  8
0
  6
CONTINUOUS
 62
    7
370
   -1
100
AcDbLine
 10
-1946.00264524
 20
-898.2200417800001
 11
-1946.00264524
 21
-847.9821808899999
  0
LINE
  5
240
100
AcDbEntity
  8
0
  6
CONTINUOUS
 62
    7
370
   -1
100
AcDbLine
 10
-1292.9104536
 20
-898.2200417800001
 11
-1946.00264524
 21
-898.2200417800001
  0
LINE
  5
241
100
AcDbEntity
  8
0
  6
CONTINUOUS
 62
    7
370
   -1
100
AcDbLine
 10
-1946.00264524
 20
-847.9821808899999
 11
-1292.9104536
 21
-847.9821808899999
  0
LINE
  5
242
100
AcDbEntity
  8
0
  6
CONTINUOUS
 62
    7
370
   -1
100
AcDbLine
 10
-1529.8568465
 20
-509.8884104000002
 11
-1565.52572198
 21
-545.5572688000001
  0
LINE
  5
243
100
AcDbEntity
  8
0
  6
CONTINUOUS
 62
    7
370
   -1
100
AcDbLine
 10
-1565.52572219
 20
-546.9909931899999
 11
-1565.52572219
 21
-545.5572688000001
  0
LINE
  5
244
100
AcDbEntity
  8
0
  6
CONTINUOUS
 62
    7
370
   -1
100
AcDbLine
 10
-1500.62275399
 20
-546.7957995200002
 11
-1500.62275399
 21
-545.5572916200001
  0
LINE
  5
245
100
AcDbEntity
  8
0
  6
CONTINUOUS
 62
    7
370
   -1
100
AcDbLine
 10
-1600.23668435
 20
-546.9066805700003
 11
-1665.42013709
 21
-549.1690453600003
  0
LINE
  5
246
100
AcDbEntity
  8
0
  6
CONTINUOUS
 62
    7
370
   -1
100
AcDbLine
 10
-1382.26157952
 20
-546.6573913899997
 11
-1600.23658264
 21
-546.9122850500003
  0
LINE
  5
247
100
AcDbEntity
  8
0
  6
CONTINUOUS
 62
    7
370
   -1
100
AcDbLine
 10
-1382.20281732
 20
-596.8952181200002
 11
-1599.3590856
 21
-597.1445414599998
  0
LINE
  5
248
100
AcDbEntity
  8
0
  6
CONTINUOUS
 62
    7
370
   -1
100
AcDbLine
 10
-1500.62275399
 20
-545.5572916200001
 11
-1565.52572219
 21
-545.55726901
  0
LINE
  5
249
100
AcDbEntity
  8
0
  6
CONTINUOUS
 62
    7
370
   -1
100
AcDbLine
 10
-1473.57460363
 20
-546.7641701599999
 11
-1473.57460363
 21
-509.8884104000002
  0
LINE
  5
24A
100
AcDbEntity
  8
0
  6
CONTINUOUS
 62
    7
370
   -1
100
AcDbLine
 10
-1529.8568437
 20
-509.8884104000002
 11
-1473.57460363
 21
-509.8884104000002
  0
LINE
  5
24B
100
AcDbEntity
  8
0
  6
CONTINUOUS
 62
    7
370
   -1
100
AcDbLine
 10
-1382.26157952
 20
-546.6573913899997
 11
-1382.20283286
 21
-596.8952181200002
  0
LINE
  5
24C
100
AcDbEntity
  8
0
  6
CONTINUOUS
 62
    7
370
   -1
100
AcDbLine
 10
-1292.9104536
 20
-898.2200417800001
 11
-1292.9104536
 21
-847.9821808899999
  0
LINE
  5
24D
100
AcDbEntity
  8
0
  6
CONTINUOUS
 62
    7
370
   -1
100
AcDbLine
 10
-1206.57815013
 20
-553.8790491899999
 11
-1210.75989182
 21
-603.9425661900002
  0
LINE
  5
24E
100
AcDbEntity
  8
0
  6
CONTINUOUS
 62
    7
370
   -1
100
AcDbLine
 10
-1007.76736985
 20
-880.3944351000002
 11
-1008.04543701
 21
-848.2813126599999
  0
LINE
  5
24F
100
AcDbEntity
  8
0
  6
CONTINUOUS
 62
    7
370
   -1
100
AcDbLine
 10
-1008.04543701
 20
-626.35510396
 11
-1002.96022828
 21
-593.0388236199999
  0
LINE
  5
250
100
AcDbEntity
  8
0
  6
CONTINUOUS
 62
    7
370
   -1
100
AcDbLine
 10
-189.5214131400002
 20
-846.92689162
 11
-188.2331495899998
 21
-847.6636701099999
  0
ARC
  5
251
100
AcDbEntity
  8
0
  6
CONTINUOUS
 62
    7
370
   -1
100
AcDbCircle
 10
-1852.33990334
 20
-8307.1301389
 40
7780.09708903
100
AcDbArc
 50
84.9938453356
 51
85.23887193660001
  0
ARC
  5
252
100
AcDbEntity
  8
0
  6
CONTINUOUS
 62
    7
370
   -1
100
AcDbCircle
 10
-2631.8415723
 20
-1198.21626593
 40
542.3253842299999
100
AcDbArc
 50
132.5510870552
 51
132.7539641668
  0
ARC
  5
253
100
AcDbEntity
  8
0
  6
CONTINUOUS
 62
    7
370
   -1
100
AcDbCircle
 10
-1960.18316334
 20
27189.28568345
 40
28037.27145044
100
AcDbArc
 50
269.7365810538
 51
270.028978707
  0
ARC
  5
254
100
AcDbEntity
  8
0
  6
CONTINUOUS
 62
    7
370
   -1
100
AcDbCircle
 10
-1965.58706114
 20
23387.16453832
 40
24285.39247687
100
AcDbArc
 50
269.6188673498
 51
270.0462049151
  0
ARC
  5
255
100
AcDbEntity
  8
0
  6
CONTINUOUS
 62
    7
370
   -1
100
AcDbCircle
 10
-1314.74708905
 20
-27134.5183535
 40
26236.30739905
100
AcDbArc
 50
89.7069195367
 51
89.9523123749
  0
ARC
  5
256
100
AcDbEntity
  8
0
  6
CONTINUOUS
 62
    7
370
   -1
100
AcDbCircle
 10
-1379.82770521
 20
-2628.01054513
 40
2081.35457677
100
AcDbArc
 50
85.225240697
 51
90.06699999999999
  0
ARC
  5
257
100
AcDbEntity
  8
0
  6
CONTINUOUS
 62
    7
370
   -1
100
AcDbCircle
 10
-1379.86440544
 20
-2628.88898444
 40
2031.99511186
100
AcDbArc
 50
85.226370183
 51
90.0659357701
  0
ARC
  5
258
100
AcDbEntity
  8
0
  6
CONTINUOUS
 62
    7
370
   -1
100
AcDbCircle
 10
-1150.10352304
 20
7731.84287137
 40
8632.252790910001
100
AcDbArc
 50
272.5168081318
 51
272.7359694895
  0
ARC
  5
259
100
AcDbEntity
  8
0
  6
CONTINUOUS
 62
    7
370
   -1
100
AcDbCircle
 10
-1105.75477069
 20
6684.97163624
 40
7584.44072918
100
AcDbArc
 50
272.1355342711
 51
272.2754715095
  0
ARC
  5
25A
100
AcDbEntity
  8
0
  6
CONTINUOUS
 62
    7
370
   -1
100
AcDbCircle
 10
-1090.66056373
 20
6273.550708070001
 40
7172.74288836
100
AcDbArc
 50
271.8997648894
 51
272.0751888035
  0
ARC
  5
25B
100
AcDbEntity
  8
0
  6
CONTINUOUS
 62
    7
370
   -1
100
AcDbCircle
 10
-1074.0274872
 20
6260.473434
 40
7109.0609562
100
AcDbArc
 50
270.5317927785
 51
272.4865919656
  0
SPLINE
  5
25C
100
AcDbEntity
  8
0
  6
CONTINUOUS
 62
    7
370
   -1
100
AcDbSpline
210
0
220
0
230
0
 70
    8
 71
    3
 72
    9
 73
    5
 74
    0
 42
1e-07
 43
1e-07
 40
0
 40
0
 40
0
 40
0
 40
0.5
 40
1
 40
1
 40
1
 40
1
 10
-2169.82269078
 20
-571.8739280499999
 30
0
 10
-2124.20663435
 20
-568.8152763000003
 30
0
 10
-1956.62651808
 20
-559.3203252399999
 30
0
 10
-1788.70312153
 20
-553.4374451600003
 30
0
 10
-1665.42057298
 20
-549.1690628599998
 30
0
  0
LINE
  5
25D
100
AcDbEntity
  8
0
  6
CONTINUOUS
 62
    7
370
   -1
100
AcDbLine
 10
-2397.27046518
 20
-591.9692678600002
 11
-2396.0093806
 21
-591.82619647
  0
LINE
  5
25E
100
AcDbEntity
  8
0
  6
CONTINUOUS
 62
    7
370
   -1
100
AcDbLine
 10
-2175.26913591
 20
-572.24138773
 11
-2169.82267741
 21
-571.8739271399998
  0
SPLINE
  5
25F
100
AcDbEntity
  8
0
  6
CONTINUOUS
 62
    7
370
   -1
100
AcDbSpline
210
0
220
0
230
0
 70
    8
 71
    3
 72
    9
 73
    5
 74
    0
 42
1e-07
 43
1e-07
 40
0
 40
0
 40
0
 40
0
 40
0.5
 40
1
 40
1
 40
1
 40
1
 10
-2169.82269043
 20
-571.87392798
 30
0
 10
-2124.20663414
 20
-568.8152763000003
 30
0
 10
-1963.14713764
 20
-559.6897781700002
 30
0
 10
-1801.77055556
 20
-553.9007250399998
 30
0
 10
-1685.18061167
 20
-549.8539254999998
 30
0
  0
LINE
  5
260
100
AcDbEntity
  8
0
  6
CONTINUOUS
 62
    7
370
   -1
100
AcDbLine
 10
-1685.18061167
 20
-549.8539254999998
 11
-1665.42057151
 21
-549.1690627899998
  0
SPLINE
  5
261
100
AcDbEntity
  8
0
  6
CONTINUOUS
 62
    7
370
   -1
100
AcDbSpline
210
0
220
0
230
0
 70
    8
 71
    3
 72
    9
 73
    5
 74
    0
 42
1e-07
 43
1e-07
 40
0
 40
0
 40
0
 40
0
 40
0.5
 40
1
 40
1
 40
1
 40
1
 10
-2995.49320365
 20
-801.61477953
 30
0
 10
-2966.09265093
 20
-812.0789365899998
 30
0
 10
-2782.20991245
 20
-869.0781611100002
 30
0
 10
-2588.03213593
 20
-884.5420241399999
 30
0
 10
-2426.12983915
 20
-891.1328128199999
 30
0
  0
SPLINE
  5
262
100
AcDbEntity
  8
0
  6
CONTINUOUS
 62
    7
370
   -1
100
AcDbSpline
210
0
220
0
230
0
 70
    8
 71
    3
 72
    9
 73
    5
 74
    0
 42
1e-07
 43
1e-07
 40
0
 40
0
 40
0
 40
0
 40
0.5
 40
1
 40
1
 40
1
 40
1
 10
-2416.31115587
 20
-891.5249363700002
 30
0
 10
-2581.44690868
 20
-885.05428925
 30
0
 10
-2780.40135178
 20
-869.9449051700003
 30
0
 10
-2968.56741994
 20
-811.3097913600001
 30
0
 10
-2999.16347228
 20
-800.3013539199998
 30
0
  0
LINE
  5
263
100
AcDbEntity
  8
0
  6
CONTINUOUS
 62
    7
370
   -1
100
AcDbLine
 10
-2999.16347228
 20
-800.3013539199998
 11
-3000
 21
-800
  0
LINE
  5
264
100
AcDbEntity
  8
0
  6
CONTINUOUS
 62
    7
370
   -1
100
AcDbLine
 10
-2127.13277414
 20
-897.6906338799997
 11
-2135.6398887
 21
-897.6247052199998
  0
LINE
  5
265
100
AcDbEntity
  8
0
  6
CONTINUOUS
 62
    7
370
   -1
100
AcDbLine
 10
-2412.32473105
 20
-891.6799450000002
 11
-2416.31115657
 21
-891.5249363700002
  0
SPLINE
  5
266
100
AcDbEntity
  8
0
  6
CONTINUOUS
 62
    7
370
   -1
100
AcDbSpline
210
0
220
0
230
0
 70
    8
 71
    3
 72
    9
 73
    5
 74
    0
 42
1e-07
 43
1e-07
 40
0
 40
0
 40
0
 40
0
 40
0.5
 40
1
 40
1
 40
1
 40
1
 10
-189.4121447499998
 20
-847.8112290600002
 30
0
 10
-315.8095855699997
 20
-863.61077604
 30
0
 10
-509.6755087299998
 20
-878.2403969199999
 30
0
 10
-703.8910743299999
 20
-889.1332203300001
 30
0
 10
-771.0400373299999
 20
-892.0830976799997
 30
0
  0
SPLINE
  5
267
100
AcDbEntity
  8
0
  6
CONTINUOUS
 62
    7
370
   -1
100
AcDbSpline
210
0
220
0
230
0
 70
    8
 71
    3
 72
    9
 73
    5
 74
    0
 42
1e-07
 43
1e-07
 40
0
 40
0
 40
0
 40
0
 40
0.5
 40
1
 40
1
 40
1
 40
1
 10
-738.05562132
 20
-890.5700607699998
 30
0
 10
-681.90963016
 20
-887.88833249
 30
0
 10
-503.2410538499998
 20
-877.6718919899999
 30
0
 10
-324.86844293
 20
-864.2923265600001
 30
0
 10
-202.9519733599998
 20
-849.4798743599999
 30
0
  0
LINE
  5
268
100
AcDbEntity
  8
0
  6
CONTINUOUS
 62
    7
370
   -1
100
AcDbLine
 10
-189.4124225799998
 20
-847.81126378
 11
-188.2331509199999
 21
-847.6636736100002
  0
LINE
  5
269
100
AcDbEntity
  8
0
  6
CONTINUOUS
 62
    7
370
   -1
100
AcDbLine
 10
-830.92866473
 20
-894.4880671699998
 11
-823.13215223
 21
-894.2015132800003
  0
LINE
  5
26A
100
AcDbEntity
  8
0
  6
CONTINUOUS
 62
    7
370
   -1
100
AcDbLine
 10
-804.6219021499996
 20
-893.48864077
 11
-796.9478432399998
 21
-893.1799709399997
  0
SPLINE
  5
26B
100
AcDbEntity
  8
0
  6
CONTINUOUS
 62
    7
370
   -1
100
AcDbSpline
210
0
220
0
230
0
 70
    8
 71
    3
 72
    8
 73
    4
 74
    0
 42
1e-07
 43
1e-07
 40
0
 40
0
 40
0
 40
0
 40
1
 40
1
 40
1
 40
1
 10
-189.5214321099999
 20
-846.9268807700003
 30
0
 10
-290.7962204099998
 20
-789.0654341900002
 30
0
 10
-396.8252294399998
 20
-742.4415573100002
 30
0
 10
-505.6738215300002
 20
-703.4891639700002
 30
0
  0
SPLINE
  5
26C
100
AcDbEntity
  8
0
  6
CONTINUOUS
 62
    7
370
   -1
100
AcDbSpline
210
0
220
0
230
0
 70
    8
 71
    3
 72
    9
 73
    5
 74
    0
 42
1e-07
 43
1e-07
 40
0
 40
0
 40
0
 40
0
 40
0.5
 40
1
 40
1
 40
1
 40
1
 10
-189.5214131400002
 20
-846.92689162
 30
0
 10
-335.5801143900002
 20
-763.4789956899999
 30
0
 10
-526.8260347100002
 20
-689.8068010100003
 30
0
 10
-724.2158105099999
 20
-635.1990051799997
 30
0
 10
-760.8325538199999
 20
-625.8626130800001
 30
0
  0
LINE
  5
26D
100
AcDbEntity
  8
0
  6
CONTINUOUS
 62
    7
370
   -1
100
AcDbLine
 10
-1118.33562121
 20
-561.8873019600001
 11
-1119.415014
 21
-561.7780388200001
  0
SPLINE
  5
26E
100
AcDbEntity
  8
0
  6
CONTINUOUS
 62
    7
370
   -1
100
AcDbSpline
210
0
220
0
230
0
 70
    8
 71
    3
 72
    8
 73
    4
 74
    0
 42
1e-07
 43
1e-07
 40
0
 40
0
 40
0
 40
0
 40
1
 40
1
 40
1
 40
1
 10
-1119.415014
 20
-561.7780388200001
 30
0
 10
-1148.43549143
 20
-558.8453683100004
 30
0
 10
-1177.50144639
 20
-556.3077882300003
 30
0
 10
-1206.57815006
 20
-553.8790483499999
 30
0
  0
SPLINE
  5
26F
100
AcDbEntity
  8
0
  6
CONTINUOUS
 62
    7
370
   -1
100
AcDbSpline
210
0
220
0
230
0
 70
    8
 71
    3
 72
   10
 73
    6
 74
    0
 42
1e-07
 43
1e-07
 40
0
 40
0
 40
0
 40
0
 40
0.3333333333333333
 40
0.6666666666666666
 40
1
 40
1
 40
1
 40
1
 10
-808.7137165900001
 20
-476.3996056800003
 30
0
 10
-802.0126471799998
 20
-479.1964902600001
 30
0
 10
-736.3797085500001
 20
-507.8842931800003
 30
0
 10
-633.0117858499999
 20
-573.9752935399998
 30
0
 10
-549.9966056299997
 20
-653.5915590099999
 30
0
 10
-516.7032043700001
 20
-690.9080132199999
 30
0
  0
SPLINE
  5
270
100
AcDbEntity
  8
0
  6
CONTINUOUS
 62
    7
370
   -1
100
AcDbSpline
210
0
220
0
230
0
 70
    8
 71
    3
 72
   10
 73
    6
 74
    0
 42
1e-07
 43
1e-07
 40
0
 40
0
 40
0
 40
0
 40
0.3333333333333333
 40
0.6666666666666666
 40
1
 40
1
 40
1
 40
1
 10
-505.6737772900002
 20
-703.4891901499998
 30
0
 10
-541.9159538199997
 20
-661.41558837
 30
0
 10
-628.2610196199997
 20
-577.0128208299999
 30
0
 10
-736.3803708200002
 20
-507.8838697500001
 30
0
 10
-802.01407714
 20
-479.19586523
 30
0
 10
-808.7158766499998
 20
-476.3987041500002
 30
0
  0
SPLINE
  5
271
100
AcDbEntity
  8
0
  6
CONTINUOUS
 62
    7
370
   -1
100
AcDbSpline
210
0
220
0
230
0
 70
    8
 71
    3
 72
    8
 73
    4
 74
    0
 42
1e-07
 43
1e-07
 40
0
 40
0
 40
0
 40
0
 40
1
 40
1
 40
1
 40
1
 10
-1008.04543701
 20
-848.2813126599999
 30
0
 10
-1102.99693526
 20
-849.1035066900001
 30
0
 10
-1197.95539571
 20
-847.98218908
 30
0
 10
-1292.9104536
 20
-847.9821808899999
 30
0
  0
SPLINE
  5
272
100
AcDbEntity
  8
0
  6
CONTINUOUS
 62
    7
370
   -1
100
AcDbSpline
210
0
220
0
230
0
 70
    8
 71
    3
 72
   11
 73
    7
 74
    0
 42
1e-07
 43
1e-07
 40
0
 40
0
 40
0
 40
0
 40
0.25
 40
0.5
 40
0.75
 40
1
 40
1
 40
1
 40
1
 10
-771.0400348099997
 20
-892.0831552200002
 30
0
 10
-769.4475758999999
 20
-892.0131949799999
 30
0
 10
-767.3161974899999
 20
-885.3127060099997
 30
0
 10
-765.9839147200001
 20
-876.0276586300001
 30
0
 10
-765.1163436100001
 20
-859.8889697699999
 30
0
 10
-765.3232158000001
 20
-848.2655735800003
 30
0
 10
-765.5966522499997
 20
-841.8936431200002
 30
0
  0
LINE
  5
273
100
AcDbEntity
  8
0
  6
CONTINUOUS
 62
    7
370
   -1
100
AcDbLine
 10
-1600.23654862
 20
-546.9066805700003
 11
-1599.3590856
 21
-597.1445414599998
  0
SPLINE
  5
274
100
AcDbEntity
  8
0
  6
CONTINUOUS
 62
    7
370
   -1
100
AcDbSpline
210
0
220
0
230
0
 70
    8
 71
    3
 72
    8
 73
    4
 74
    0
 42
1e-07
 43
1e-07
 40
0
 40
0
 40
0
 40
0
 40
1
 40
1
 40
1
 40
1
 10
-2112.82377307
 20
-618.61027764
 30
0
 10
-1941.822292
 20
-608.4274789300002
 30
0
 10
-1770.55902647
 20
-603.12585687
 30
0
 10
-1599.3590856
 20
-597.1445414599998
 30
0
  0
LINE
  5
275
100
AcDbEntity
  8
0
  6
CONTINUOUS
 62
    7
370
   -1
100
AcDbLine
 10
-1476.61984128
 20
-509.8884104000002
 11
-1500.62275399
 21
-545.5572916200001
  0
SPLINE
  5
276
100
AcDbEntity
  8
0
  6
CONTINUOUS
 62
    7
370
   -1
100
AcDbSpline
210
0
220
0
230
0
 70
    8
 71
    3
 72
    9
 73
    5
 74
    0
 42
1e-07
 43
1e-07
 40
0
 40
0
 40
0
 40
0
 40
0.5
 40
1
 40
1
 40
1
 40
1
 10
-341.6096938199997
 20
-815.4897142399997
 30
0
 10
-375.7891409399998
 20
-818.4220885799998
 30
0
 10
-516.9873210000001
 20
-829.23354826
 30
0
 10
-658.3906025299998
 20
-837.3247250599999
 30
0
 10
-765.5966508500002
 20
-841.8936431200002
 30
0
  0
SPLINE
  5
277
100
AcDbEntity
  8
0
  6
CONTINUOUS
 62
    7
370
   -1
100
AcDbSpline
210
0
220
0
230
0
 70
    8
 71
    3
 72
    9
 73
    5
 74
    0
 42
1e-07
 43
1e-07
 40
0
 40
0
 40
0
 40
0
 40
0.5
 40
1
 40
1
 40
1
 40
1
 10
-341.6096938199997
 20
-815.4897142399997
 30
0
 10
-374.8465259799997
 20
-800.8779361500002
 30
0
 10
-512.9528772300002
 20
-744.6995218999998
 30
0
 10
-656.1596462499998
 20
-701.6095099700001
 30
0
 10
-765.5966508500002
 20
-674.5429673200003
 30
0
  0
SPLINE
  5
278
100
AcDbEntity
  8
0
  6
CONTINUOUS
 62
    7
370
   -1
100
AcDbSpline
210
0
220
0
230
0
 70
    8
 71
    3
 72
    9
 73
    5
 74
    0
 42
1e-07
 43
1e-07
 40
0
 40
0
 40
0
 40
0
 40
0.5
 40
1
 40
1
 40
1
 40
1
 10
-2452.29918529
 20
-839.7297513900003
 30
0
 10
-2491.0907824
 20
-837.9563356899998
 30
0
 10
-2644.76959111
 20
-829.1994518200003
 30
0
 10
-2798.20006061
 20
-807.9842011900001
 30
0
 10
-2910.13117606
 20
-780.94684784
 30
0
  0
SPLINE
  5
279
100
AcDbEntity
  8
0
  6
CONTINUOUS
 62
    7
370
   -1
100
AcDbSpline
210
0
220
0
230
0
 70
    8
 71
    3
 72
    9
 73
    5
 74
    0
 42
1e-07
 43
1e-07
 40
0
 40
0
 40
0
 40
0
 40
0.5
 40
1
 40
1
 40
1
 40
1
 10
-2910.13117606
 20
-780.94684784
 30
0
 10
-2875.56516388
 20
-761.23055551
 30
0
 10
-2728.20922403
 20
-692.6893884799999
 30
0
 10
-2566.42316673
 20
-663.8572434600002
 30
0
 10
-2445.4130321
 20
-648.35708004
 30
0
  0
SPLINE
  5
27A
100
AcDbEntity
  8
0
  6
CONTINUOUS
 62
    7
370
   -1
100
AcDbSpline
210
0
220
0
230
0
 70
    8
 71
    3
 72
    8
 73
    4
 74
    0
 42
1e-07
 43
1e-07
 40
0
 40
0
 40
0
 40
0
 40
1
 40
1
 40
1
 40
1
 10
-765.5966508500002
 20
-674.5429673200003
 30
0
 10
-845.5909576199999
 20
-654.7898182400004
 30
0
 10
-926.5341255199999
 20
-638.40425779
 30
0
 10
-1008.04543701
 20
-626.35510396
 30
0
  0
LINE
  5
27B
100
AcDbEntity
  8
0
  6
CONTINUOUS
 62
    7
370
   -1
100
AcDbLine
 10
-1595.41448333
 20
-597.1445328499997
 11
-1595.4291701
 21
-546.9066805700003
  0
SPLINE
  5
27C
100
AcDbEntity
  8
0
  6
CONTINUOUS
 62
    7
370
   -1
100
AcDbSpline
210
0
220
0
230
0
 70
    8
 71
    3
 72
    8
 73
    4
 74
    0
 42
1e-07
 43
1e-07
 40
0
 40
0
 40
0
 40
0
 40
1
 40
1
 40
1
 40
1
 10
-189.5214145399997
 20
-846.9268940700001
 30
0
 10
-191.0600230799997
 20
-846.0478389699999
 30
0
 10
-192.8021314199998
 20
-845.5733692400003
 30
0
 10
-194.4949983999999
 20
-845.0496749500002
 30
0
  0
SPLINE
  5
27D
100
AcDbEntity
  8
0
  6
CONTINUOUS
 62
    7
370
   -1
100
AcDbSpline
210
0
220
0
230
0
 70
    8
 71
    3
 72
    9
 73
    5
 74
    0
 42
1e-07
 43
1e-07
 40
0
 40
0
 40
0
 40
0
 40
0.5
 40
1
 40
1
 40
1
 40
1
 10
-194.4949983999999
 20
-845.0496749500002
 30
0
 10
-216.1089625199997
 20
-838.36331989
 30
0
 10
-265.4576985999996
 20
-829.1986565499997
 30
0
 10
-314.57952744
 20
-820.0120373600001
 30
0
 10
-341.6097950400001
 20
-815.4897142399997
 30
0
  0
SPLINE
  5
27E
100
AcDbEntity
  8
0
  6
CONTINUOUS
 62
    7
370
   -1
100
AcDbSpline
210
0
220
0
230
0
 70
    8
 71
    3
 72
   11
 73
    7
 74
    0
 42
1e-07
 43
1e-07
 40
0
 40
0
 40
0
 40
0
 40
0.25
 40
0.5
 40
0.75
 40
1
 40
1
 40
1
 40
1
 10
-765.5966514100003
 20
-674.5429673200003
 30
0
 10
-764.0941483800002
 20
-668.5104275900001
 30
0
 10
-761.6275588699998
 20
-657.4937256699999
 30
0
 10
-759.2637608599999
 20
-641.99589416
 30
0
 10
-758.7017485000001
 20
-632.9811813200001
 30
0
 10
-759.35286554
 20
-626.2399014600003
 30
0
 10
-760.83255445
 20
-625.8626154600004
 30
0
  0
LINE
  5
27F
100
AcDbEntity
  8
0
  6
CONTINUOUS
 62
    7
370
   -1
100
AcDbLine
 10
-1118.36142076
 20
-562.1379468300001
 11
-1116.31161167
 21
-562.3416583799998
  0
SPLINE
  5
280
100
AcDbEntity
  8
0
  6
CONTINUOUS
 62
    7
370
   -1
100
AcDbSpline
210
0
220
0
230
0
 70
    8
 71
    3
 72
    8
 73
    4
 74
    0
 42
1e-07
 43
1e-07
 40
0
 40
0
 40
0
 40
0
 40
1
 40
1
 40
1
 40
1
 10
-1008.04543701
 20
-626.35510396
 30
0
 10
-1075.25148606
 20
-616.09717817
 30
0
 10
-1143.01493167
 20
-609.6012972400001
 30
0
 10
-1210.76339357
 20
-603.94232287
 30
0
  0
SPLINE
  5
281
100
AcDbEntity
  8
0
  6
CONTINUOUS
 62
    7
370
   -1
100
AcDbSpline
210
0
220
0
230
0
 70
    8
 71
    3
 72
   11
 73
    7
 74
    0
 42
1e-07
 43
1e-07
 40
0
 40
0
 40
0
 40
0
 40
0.25
 40
0.5
 40
0.75
 40
1
 40
1
 40
1
 40
1
 10
-2910.13111152
 20
-780.94684784
 30
0
 10
-2919.9695481
 20
-782.3452404999999
 30
0
 10
-2938.56440396
 20
-785.2008892400002
 30
0
 10
-2964.49973037
 20
-789.2004044099997
 30
0
 10
-2983.66468247
 20
-793.8489476799999
 30
0
 10
-2995.55354358
 20
-795.9136732099997
 30
0
 10
-2998.58765347
 20
-798.6989053799998
 30
0
  0
LINE
  5
282
100
AcDbEntity
  8
frame
  6
ByLayer
 62
  256
370
   -1
100
AcDbLine
 10
-2886.882268812223
 20
-748.1135437434132
 11
-2873.173624307306
 21
-739.8385986352473
  0
LINE
  5
283
100
AcDbEntity
  8
frame
  6
ByLayer
 62
  256
370
   -1
100
AcDbLine
 10
-2873.555192871772
 20
-740.0643330911437
 11
-2859.546497734301
 21
-731.9436608394677
  0
LINE
  5
284
100
AcDbEntity
  8
frame
  6
ByLayer
 62
  256
370
   -1
100
AcDbLine
 10
-2859.946501537383
 20
-732.1706482938066
 11
-2845.704965464424
 21
-724.261391069266
  0
LINE
  5
285
100
AcDbEntity
  8
frame
  6
ByLayer
 62
  256
370
   -1
100
AcDbLine
 10
-2846.129657282797
 20
-724.4919083480617
 11
-2831.722489971418
 21
-716.8512083213018
  0
LINE
  5
286
100
AcDbEntity
  8
frame
  6
ByLayer
 62
  256
370
   -1
100
AcDbLine
 10
-2832.178840195202
 20
-717.0872532295509
 11
-2817.673251342469
 21
-709.7722525712172
  0
LINE
  5
287
100
AcDbEntity
  8
frame
  6
ByLayer
 62
  256
370
   -1
100
AcDbLine
 10
-2818.169276662279
 20
-710.0155553391917
 11
-2803.632475965258
 21
-703.0833962199295
  0
LINE
  5
288
100
AcDbEntity
  8
frame
  6
ByLayer
 62
  256
370
   -1
100
AcDbLine
 10
-2899.854695307896
 20
-756.2585207305285
 11
-2886.513311132598
 21
-747.8864449365179
  0
LINE
  5
289
100
AcDbEntity
  8
frame
  6
ByLayer
 62
  256
370
   -1
100
AcDbLine
 10
-2804.177237291022
 20
-703.335195885621
 11
-2789.675944548171
 21
-696.8424983811037
  0
LINE
  5
28A
100
AcDbEntity
  8
frame
  6
ByLayer
 62
  256
370
   -1
100
AcDbLine
 10
-2790.254723747833
 20
-697.0929217425989
 11
-2775.826264841104
 21
-691.0649802301891
  0
LINE
  5
28B
100
AcDbEntity
  8
frame
  6
ByLayer
 62
  256
370
   -1
100
AcDbLine
 10
-2776.40169354108
 20
-691.2970393151743
 11
-2762.037833781838
 21
-685.7105933398524
  0
LINE
  5
28C
100
AcDbEntity
  8
frame
  6
ByLayer
 62
  256
370
   -1
100
AcDbLine
 10
-2748.839660995647
 20
-680.9410937944033
 11
-2734.568537898871
 21
-676.1553272488734
  0
LINE
  5
28D
100
AcDbEntity
  8
frame
  6
ByLayer
 62
  256
370
   -1
100
AcDbLine
 10
-2762.6022232012
 20
-685.9223004036996
 11
-2748.290808711943
 21
-680.749912750671
  0
LINE
  5
28E
100
AcDbEntity
  8
frame
  6
ByLayer
 62
  256
370
   -1
100
AcDbLine
 10
-2735.097476120616
 20
-676.3261870818249
 11
-2720.854490538821
 21
-671.8996044289991
  0
LINE
  5
28F
100
AcDbEntity
  8
frame
  6
ByLayer
 62
  256
370
   -1
100
AcDbLine
 10
-2721.359354472335
 20
-672.0506948903615
 11
-2707.132352528018
 21
-667.9558589154454
  0
LINE
  5
290
100
AcDbEntity
  8
frame
  6
ByLayer
 62
  256
370
   -1
100
AcDbLine
 10
-2707.609282020178
 20
-668.0880319451387
 11
-2693.386109835837
 21
-664.2975054333381
  0
LINE
  5
291
100
AcDbEntity
  8
frame
  6
ByLayer
 62
  256
370
   -1
100
AcDbLine
 10
-2693.831612391522
 20
-664.4118548262509
 11
-2679.600116089653
 21
-660.8982005627711
  0
LINE
  5
292
100
AcDbEntity
  8
frame
  6
ByLayer
 62
  256
370
   -1
100
AcDbLine
 10
-2680.011116839871
 20
-660.9959967942901
 11
-2665.759142542974
 21
-657.7317775643364
  0
LINE
  5
293
100
AcDbEntity
  8
frame
  6
ByLayer
 62
  256
370
   -1
100
AcDbLine
 10
-2666.133016318026
 20
-657.8144001384612
 11
-2651.848410148598
 21
-654.7721787272392
  0
LINE
  5
294
100
AcDbEntity
  8
frame
  6
ByLayer
 62
  256
370
   -1
100
AcDbLine
 10
-2652.182996730223
 20
-654.8410501369906
 11
-2637.853604810761
 21
-651.9933893297059
  0
LINE
  5
295
100
AcDbEntity
  8
frame
  6
ByLayer
 62
  256
370
   -1
100
AcDbLine
 10
-2638.147209463813
 20
-652.0499140488376
 11
-2623.760877916816
 21
-649.3693766306957
  0
LINE
  5
296
100
AcDbEntity
  8
frame
  6
ByLayer
 62
  256
370
   -1
100
AcDbLine
 10
-2609.765187216049
 20
-646.9097514354553
 11
-2595.228514781474
 21
-644.4811491512152
  0
LINE
  5
297
100
AcDbEntity
  8
frame
  6
ByLayer
 62
  256
370
   -1
100
AcDbLine
 10
-2624.012259943684
 20
-649.4148877119455
 11
-2609.556834891649
 21
-646.8740364681518
  0
LINE
  5
298
100
AcDbEntity
  8
frame
  6
ByLayer
 62
  256
370
   -1
100
AcDbLine
 10
-2595.393437504974
 20
-644.5081360442349
 11
-2580.763363810357
 21
-642.164345504754
  0
LINE
  5
299
100
AcDbEntity
  8
frame
  6
ByLayer
 62
  256
370
   -1
100
AcDbLine
 10
-2580.886361251928
 20
-642.1837360969037
 11
-2566.156068713411
 21
-639.8990804042384
  0
LINE
  5
29A
100
AcDbEntity
  8
frame
  6
ByLayer
 62
  256
370
   -1
100
AcDbLine
 10
-2566.255597586883
 20
-639.9143120625581
 11
-2551.480303034238
 21
-637.6835780021579
  0
LINE
  5
29B
100
AcDbEntity
  8
frame
  6
ByLayer
 62
  256
370
   -1
100
AcDbLine
 10
-2551.569543453667
 20
-637.6968866149846
 11
-2536.844485919002
 21
-635.5280633486807
  0
LINE
  5
29C
100
AcDbEntity
  8
frame
  6
ByLayer
 62
  256
370
   -1
100
AcDbLine
 10
-2536.925234531381
 20
-635.5398220359215
 11
-2522.346320083514
 21
-633.4411187651522
  0
LINE
  5
29D
100
AcDbEntity
  8
frame
  6
ByLayer
 62
  256
370
   -1
100
AcDbLine
 10
-2522.419896917995
 20
-633.4515988899523
 11
-2508.083031625741
 21
-631.4312248161553
  0
LINE
  5
29E
100
AcDbEntity
  8
frame
  6
ByLayer
 62
  256
370
   -1
100
AcDbLine
 10
-2508.150543679145
 20
-631.4406448725804
 11
-2494.15163361132
 21
-629.5068091971939
  0
LINE
  5
29F
100
AcDbEntity
  8
frame
  6
ByLayer
 62
  256
370
   -1
100
AcDbLine
 10
-2494.214031987286
 20
-629.5153489427594
 11
-2480.648983212705
 21
-627.6762608672213
  0
LINE
  5
2A0
100
AcDbEntity
  8
frame
  6
ByLayer
 62
  256
370
   -1
100
AcDbLine
 10
-2467.726468421874
 20
-625.9551567719061
 11
-2455.316860440229
 21
-624.3301915003788
  0
LINE
  5
2A1
100
AcDbEntity
  8
frame
  6
ByLayer
 62
  256
370
   -1
100
AcDbLine
 10
-2480.707111289717
 20
-627.6840721822955
 11
-2467.671829877196
 21
-625.9479409080438
  0
LINE
  5
2A2
100
AcDbEntity
  8
frame
  6
ByLayer
 62
  256
370
   -1
100
AcDbLine
 10
-2455.368776511853
 20
-624.336934322181
 11
-2443.680748029901
 21
-622.831344254816
  0
LINE
  5
2A3
100
AcDbEntity
  8
frame
  6
ByLayer
 62
  256
370
   -1
100
AcDbLine
 10
-2443.73075793573
 20
-622.8377350099379
 11
-2432.860215022286
 21
-621.4597293481731
  0
LINE
  5
2A4
100
AcDbEntity
  8
frame
  6
ByLayer
 62
  256
370
   -1
100
AcDbLine
 10
-2432.909280174934
 20
-621.4658997973901
 11
-2422.952128898814
 21
-620.2236877426637
  0
LINE
  5
2A5
100
AcDbEntity
  8
frame
  6
ByLayer
 62
  256
370
   -1
100
AcDbLine
 10
-2423.00152469728
 20
-620.2298002232121
 11
-2414.0536711273
 21
-619.131590976962
  0
LINE
  5
2A6
100
AcDbEntity
  8
frame
  6
ByLayer
 62
  256
370
   -1
100
AcDbLine
 10
-2414.105325552634
 20
-619.137876190724
 11
-2406.262675757609
 21
-618.191878954388
  0
LINE
  5
2A7
100
AcDbEntity
  8
frame
  6
ByLayer
 62
  256
370
   -1
100
AcDbLine
 10
-2406.319943987834
 20
-618.1987197599491
 11
-2399.678404036581
 21
-617.4131437349654
  0
LINE
  5
2A8
100
AcDbEntity
  8
frame
  6
ByLayer
 62
  256
370
   -1
100
AcDbLine
 10
-1930.906280765834
 20
-584.1034582753828
 11
-1918.369491768807
 21
-583.5620061930696
  0
LINE
  5
2A9
100
AcDbEntity
  8
frame
  6
ByLayer
 62
  256
370
   -1
100
AcDbLine
 10
-1955.73749094971
 20
-585.2131805597767
 11
-1943.319151240278
 21
-584.651834843235
  0
LINE
  5
2AA
100
AcDbEntity
  8
frame
  6
ByLayer
 62
  256
370
   -1
100
AcDbLine
 10
-1987.518644216242
 20
-586.7123491782735
 11
-1974.680296173835
 21
-586.0966784741972
  0
LINE
  5
2AB
100
AcDbEntity
  8
frame
  6
ByLayer
 62
  256
370
   -1
100
AcDbLine
 10
-2025.367426897
 20
-588.6014210138151
 11
-2012.856755084815
 21
-587.9650253194429
  0
LINE
  5
2AC
100
AcDbEntity
  8
frame
  6
ByLayer
 62
  256
370
   -1
100
AcDbLine
 10
-2037.684216619563
 20
-589.2393490658794
 11
-2025.344410930158
 21
-588.6002395960438
  0
LINE
  5
2AD
100
AcDbEntity
  8
frame
  6
ByLayer
 62
  256
370
   -1
100
AcDbLine
 10
-2049.799644502956
 20
-589.8778894532811
 11
-2037.661525292683
 21
-589.2381634852995
  0
LINE
  5
2AE
100
AcDbEntity
  8
frame
  6
ByLayer
 62
  256
370
   -1
100
AcDbLine
 10
-2061.682730250948
 20
-590.5149372096943
 11
-2049.77711787616
 21
-589.8766920208842
  0
LINE
  5
2AF
100
AcDbEntity
  8
frame
  6
ByLayer
 62
  256
370
   -1
100
AcDbLine
 10
-2061.682730250948
 20
-590.5149372096943
 11
-2049.77711787616
 21
-589.8766920208842
  0
LINE
  5
2B0
100
AcDbEntity
  8
frame
  6
ByLayer
 62
  256
370
   -1
100
AcDbLine
 10
-2073.302484299088
 20
-591.1483862783438
 11
-2061.660199116138
 21
-590.5137191460228
  0
LINE
  5
2B1
100
AcDbEntity
  8
frame
  6
ByLayer
 62
  256
370
   -1
100
AcDbLine
 10
-2073.302484299088
 20
-591.1483862783438
 11
-2061.660199116138
 21
-590.5137191460228
  0
LINE
  5
2B2
100
AcDbEntity
  8
frame
  6
ByLayer
 62
  256
370
   -1
100
AcDbLine
 10
-2084.627902271863
 20
-591.7761291677581
 11
-2073.279764637102
 21
-591.147137369244
  0
LINE
  5
2B3
100
AcDbEntity
  8
frame
  6
ByLayer
 62
  256
370
   -1
100
AcDbLine
 10
-2084.627902271863
 20
-591.7761291677581
 11
-2073.279764637102
 21
-591.147137369244
  0
LINE
  5
2B4
100
AcDbEntity
  8
frame
  6
ByLayer
 62
  256
370
   -1
100
AcDbLine
 10
-2095.627958072932
 20
-592.3960564873973
 11
-2084.604788342714
 21
-591.7748373000074
  0
LINE
  5
2B5
100
AcDbEntity
  8
frame
  6
ByLayer
 62
  256
370
   -1
100
AcDbLine
 10
-2106.271594953756
 20
-593.0060563113619
 11
-2095.604213484434
 21
-592.3947070124138
  0
LINE
  5
2B6
100
AcDbEntity
  8
frame
  6
ByLayer
 62
  256
370
   -1
100
AcDbLine
 10
-2106.271594953756
 20
-593.0060563113619
 11
-2095.604213484434
 21
-592.3947070124138
  0
LINE
  5
2B7
100
AcDbEntity
  8
frame
  6
ByLayer
 62
  256
370
   -1
100
AcDbLine
 10
-2126.365155729553
 20
-594.1878073888381
 11
-2116.501811851079
 21
-593.6024896987262
  0
LINE
  5
2B8
100
AcDbEntity
  8
frame
  6
ByLayer
 62
  256
370
   -1
100
AcDbLine
 10
-2135.75268101238
 20
-594.755312040576
 11
-2126.337586463859
 21
-594.1861560708587
  0
LINE
  5
2B9
100
AcDbEntity
  8
frame
  6
ByLayer
 62
  256
370
   -1
100
AcDbLine
 10
-2116.527713594701
 20
-593.6040132906201
 11
-2106.246940742625
 21
-593.0046311574315
  0
LINE
  5
2BA
100
AcDbEntity
  8
frame
  6
ByLayer
 62
  256
370
   -1
100
AcDbLine
 10
-2012.880250998193
 20
-587.9662094313863
 11
-2000.229533419582
 21
-587.3346247897953
  0
LINE
  5
2BB
100
AcDbEntity
  8
frame
  6
ByLayer
 62
  256
370
   -1
100
AcDbLine
 10
-2000.253664015073
 20
-587.3358178164144
 11
-1987.493721026387
 21
-586.711141504922
  0
LINE
  5
2BC
100
AcDbEntity
  8
frame
  6
ByLayer
 62
  256
370
   -1
100
AcDbLine
 10
-1974.706176692099
 20
-586.0979061484229
 11
-1961.820243952322
 21
-585.4933383290804
  0
LINE
  5
2BD
100
AcDbEntity
  8
frame
  6
ByLayer
 62
  256
370
   -1
100
AcDbLine
 10
-1943.344695313371
 20
-584.6529764215463
 11
-1930.881624413418
 21
-584.1023811975247
  0
LINE
  5
2BE
100
AcDbEntity
  8
frame
  6
ByLayer
 62
  256
370
   -1
100
AcDbLine
 10
-1961.84721548211
 20
-585.4945891526329
 11
-1948.943214886223
 21
-584.9031402093872
  0
LINE
  5
2BF
100
AcDbEntity
  8
frame
  6
ByLayer
 62
  256
370
   -1
100
AcDbLine
 10
-1918.393105908774
 20
-583.5630148821667
 11
-1905.75361190812
 21
-583.0290985907501
  0
LINE
  5
2C0
100
AcDbEntity
  8
frame
  6
ByLayer
 62
  256
370
   -1
100
AcDbLine
 10
-1918.393105908774
 20
-583.5630148821667
 11
-1905.75361190812
 21
-583.0290985907501
  0
LINE
  5
2C1
100
AcDbEntity
  8
frame
  6
ByLayer
 62
  256
370
   -1
100
AcDbLine
 10
-1905.776047796033
 20
-583.0300362314138
 11
-1893.004861885199
 21
-582.5020483800821
  0
LINE
  5
2C2
100
AcDbEntity
  8
frame
  6
ByLayer
 62
  256
370
   -1
100
AcDbLine
 10
-1905.776047796033
 20
-583.0300362314138
 11
-1893.004861885199
 21
-582.5020483800821
  0
LINE
  5
2C3
100
AcDbEntity
  8
frame
  6
ByLayer
 62
  256
370
   -1
100
AcDbLine
 10
-1893.026004259273
 20
-582.5029134879494
 11
-1880.094139531704
 21
-581.979246725891
  0
LINE
  5
2C4
100
AcDbEntity
  8
frame
  6
ByLayer
 62
  256
370
   -1
100
AcDbLine
 10
-1893.026004259273
 20
-582.5029134879494
 11
-1880.094139531704
 21
-581.979246725891
  0
LINE
  5
2C5
100
AcDbEntity
  8
frame
  6
ByLayer
 62
  256
370
   -1
100
AcDbLine
 10
-1880.113895419616
 20
-581.9800389018093
 11
-1866.992364968761
 21
-581.4590858782124
  0
LINE
  5
2C6
100
AcDbEntity
  8
frame
  6
ByLayer
 62
  256
370
   -1
100
AcDbLine
 10
-1880.113895419616
 20
-581.9800389018093
 11
-1866.992364968761
 21
-581.4590858782124
  0
LINE
  5
2C7
100
AcDbEntity
  8
frame
  6
ByLayer
 62
  256
370
   -1
100
AcDbLine
 10
-1867.010664372306
 20
-581.4598056909408
 11
-1853.670481291609
 21
-580.9399590549938
  0
LINE
  5
2C8
100
AcDbEntity
  8
frame
  6
ByLayer
 62
  256
370
   -1
100
AcDbLine
 10
-1867.010664372306
 20
-581.4598056909408
 11
-1853.670481291609
 21
-580.9399590549938
  0
LINE
  5
2C9
100
AcDbEntity
  8
frame
  6
ByLayer
 62
  256
370
   -1
100
AcDbLine
 10
-1853.687277081995
 20
-580.9406079067081
 11
-1840.099454464905
 21
-580.4202603075992
  0
LINE
  5
2CA
100
AcDbEntity
  8
frame
  6
ByLayer
 62
  256
370
   -1
100
AcDbLine
 10
-1840.114721568819
 20
-580.4208402916756
 11
-1826.250272508782
 21
-579.8983843785931
  0
LINE
  5
2CB
100
AcDbEntity
  8
frame
  6
ByLayer
 62
  256
370
   -1
100
AcDbLine
 10
-1840.114721568819
 20
-580.4208402916756
 11
-1826.250272508782
 21
-579.8983843785931
  0
LINE
  5
2CC
100
AcDbEntity
  8
frame
  6
ByLayer
 62
  256
370
   -1
100
AcDbLine
 10
-1826.264006496831
 20
-579.8988981379174
 11
-1812.093944087292
 21
-579.3727265600496
  0
LINE
  5
2CD
100
AcDbEntity
  8
frame
  6
ByLayer
 62
  256
370
   -1
100
AcDbLine
 10
-1812.106159295567
 20
-579.3731771524206
 11
-1797.601496629974
 21
-578.8416825589557
  0
LINE
  5
2CE
100
AcDbEntity
  8
frame
  6
ByLayer
 62
  256
370
   -1
100
AcDbLine
 10
-1797.612223952579
 20
-578.8420733343052
 11
-1782.743974124379
 21
-578.3036483744315
  0
LINE
  5
2CF
100
AcDbEntity
  8
frame
  6
ByLayer
 62
  256
370
   -1
100
AcDbLine
 10
-1797.612223952579
 20
-578.8420733343052
 11
-1782.743974124379
 21
-578.3036483744315
  0
LINE
  5
2D0
100
AcDbEntity
  8
frame
  6
ByLayer
 62
  256
370
   -1
100
AcDbLine
 10
-1782.753258611242
 20
-578.3039828667936
 11
-1767.49243471388
 21
-577.7570201896997
  0
LINE
  5
2D1
100
AcDbEntity
  8
frame
  6
ByLayer
 62
  256
370
   -1
100
AcDbLine
 10
-1767.500333096329
 20
-577.7573020252802
 11
-1751.817948223253
 21
-577.2001942801539
  0
LINE
  5
2D2
100
AcDbEntity
  8
frame
  6
ByLayer
 62
  256
370
   -1
100
AcDbLine
 10
-1751.824526472243
 20
-577.2004271015857
 11
-1735.691593716899
 21
-576.6315669376156
  0
LINE
  5
2D3
100
AcDbEntity
  8
frame
  6
ByLayer
 62
  256
370
   -1
100
AcDbLine
 10
-1735.696924718109
 20
-576.6317543435515
 11
-1719.084457173944
 21
-576.0495344099259
  0
LINE
  5
2D4
100
AcDbEntity
  8
frame
  6
ByLayer
 62
  256
370
   -1
100
AcDbLine
 10
-1701.970701658699
 20
-575.4525998289269
 11
-1684.312203817233
 21
-574.8388383035549
  0
LINE
  5
2D5
100
AcDbEntity
  8
frame
  6
ByLayer
 62
  256
370
   -1
100
AcDbLine
 10
-1684.314657285652
 20
-574.8389234588597
 11
-1664.554617125652
 21
-574.1540607488596
  0
LINE
  5
2D6
100
AcDbEntity
  8
frame
  6
ByLayer
 62
  256
370
   -1
100
AcDbLine
 10
-1684.314657285652
 20
-574.8389234588597
 11
-1664.554617125652
 21
-574.1540607488596
  0
LINE
  5
2D7
100
AcDbEntity
  8
frame
  6
ByLayer
 62
  256
370
   -1
100
AcDbLine
 10
-1599.369515122841
 20
-571.891636394085
 11
-1664.552967862841
 21
-574.154001184085
  0
LINE
  5
2D8
100
AcDbEntity
  8
frame
  6
ByLayer
 62
  256
370
   -1
100
AcDbLine
 10
-1719.088618582344
 20
-576.0496799085206
 11
-1701.967629342804
 21
-575.4524928544276
  0
LINE
  5
2D9
100
AcDbEntity
  8
frame
  6
ByLayer
 62
  256
370
   -1
100
AcDbLine
 10
-1382.232345263542
 20
-571.6573742971589
 11
-1600.207348383542
 21
-571.9122679571594
  0
ARC
  5
2DA
100
AcDbEntity
  8
frame
  6
ByLayer
 62
  256
370
   -1
100
AcDbCircle
 10
-1379.82770521
 20
-2628.01054513
 40
2056.35457677
100
AcDbArc
 50
85.225240697
 51
90.06699999999999
  0
ARC
  5
2DB
100
AcDbEntity
  8
frame
  6
ByLayer
 62
  256
370
   -1
100
AcDbCircle
 10
-1852.33990334
 20
-8307.1301389
 40
7755.09708903
100
AcDbArc
 50
84.9938453356
 51
85.23887193660001
  0
LINE
  5
2DC
100
AcDbEntity
  8
frame
  6
ByLayer
 62
  256
370
   -1
100
AcDbLine
 10
-1158.210869079549
 20
-583.1730831318879
 11
-1161.022497888383
 21
-582.9173214627123
  0
LINE
  5
2DD
100
AcDbEntity
  8
frame
  6
ByLayer
 62
  256
370
   -1
100
AcDbLine
 10
-1152.619180435581
 20
-583.6869781189856
 11
-1155.430416229137
 21
-583.4277242506405
  0
LINE
  5
2DE
100
AcDbEntity
  8
frame
  6
ByLayer
 62
  256
370
   -1
100
AcDbLine
 10
-1147.030365194545
 20
-584.2079732448635
 11
-1149.841179994854
 21
-583.9449965706044
  0
LINE
  5
2DF
100
AcDbEntity
  8
frame
  6
ByLayer
 62
  256
370
   -1
100
AcDbLine
 10
-1147.030365194545
 20
-584.2079732448635
 11
-1149.841179994854
 21
-583.9449965706044
  0
LINE
  5
2E0
100
AcDbEntity
  8
frame
  6
ByLayer
 62
  256
370
   -1
100
AcDbLine
 10
-1152.619180435581
 20
-583.6869781189856
 11
-1155.430416229137
 21
-583.4277242506405
  0
LINE
  5
2E1
100
AcDbEntity
  8
frame
  6
ByLayer
 62
  256
370
   -1
100
AcDbLine
 10
-1155.414669048823
 20
-583.4291714425676
 11
-1158.226104847265
 21
-583.1716924996502
  0
LINE
  5
2E2
100
AcDbEntity
  8
frame
  6
ByLayer
 62
  256
370
   -1
100
AcDbLine
 10
-1158.210869079549
 20
-583.1730831318879
 11
-1161.022497888383
 21
-582.9173214627123
  0
LINE
  5
2E3
100
AcDbEntity
  8
frame
  6
ByLayer
 62
  256
370
   -1
100
AcDbLine
 10
-1166.603668264349
 20
-582.4145611524431
 11
-1169.415834137408
 21
-582.1636053943762
  0
LINE
  5
2E4
100
AcDbEntity
  8
frame
  6
ByLayer
 62
  256
370
   -1
100
AcDbLine
 10
-1166.603668264349
 20
-582.4145611524431
 11
-1169.415834137408
 21
-582.1636053943762
  0
LINE
  5
2E5
100
AcDbEntity
  8
frame
  6
ByLayer
 62
  256
370
   -1
100
AcDbLine
 10
-1163.805375632749
 20
-582.665834742593
 11
-1166.617369478893
 21
-582.4133346658427
  0
LINE
  5
2E6
100
AcDbEntity
  8
frame
  6
ByLayer
 62
  256
370
   -1
100
AcDbLine
 10
-1172.202297481643
 20
-581.9164311652282
 11
-1175.014786425058
 21
-581.6683910894701
  0
LINE
  5
2E7
100
AcDbEntity
  8
frame
  6
ByLayer
 62
  256
370
   -1
100
AcDbLine
 10
-1169.402644532227
 20
-582.1647789049243
 11
-1172.21497543771
 21
-581.9153098138549
  0
ARC
  5
2E8
100
AcDbEntity
  8
frame
  6
ByLayer
 62
  256
370
   -1
100
AcDbCircle
 10
-1852.33990334
 20
-8307.1301389
 40
7755.09708903
100
AcDbArc
 50
84.9938453356
 51
85.23887193660001
  0
LINE
  5
2E9
100
AcDbEntity
  8
frame
  6
ByLayer
 62
  256
370
   -1
100
AcDbLine
 10
-1172.202297481643
 20
-581.9164311652282
 11
-1175.014786425058
 21
-581.6683910894701
  0
LINE
  5
2EA
100
AcDbEntity
  8
frame
  6
ByLayer
 62
  256
370
   -1
100
AcDbLine
 10
-1161.007773588663
 20
-582.918656478553
 11
-1163.819588413398
 21
-582.664554431433
  0
LINE
  5
2EB
100
AcDbEntity
  8
frame
  6
ByLayer
 62
  256
370
   -1
100
AcDbLine
 10
-1149.824410174301
 20
-583.9465598379813
 11
-1152.635438968479
 21
-583.6854733925223
  0
LINE
  5
2EC
100
AcDbEntity
  8
frame
  6
ByLayer
 62
  256
370
   -1
100
AcDbLine
 10
-1141.444478771413
 20
-584.7365215460227
 11
-1144.254844600505
 21
-584.4695914591056
  0
LINE
  5
2ED
100
AcDbEntity
  8
frame
  6
ByLayer
 62
  256
370
   -1
100
AcDbLine
 10
-1144.237052420652
 20
-584.4712749534352
 11
-1147.047646232598
 21
-584.2063503986901
  0
LINE
  5
2EE
100
AcDbEntity
  8
frame
  6
ByLayer
 62
  256
370
   -1
100
AcDbLine
 10
-1138.652651159746
 20
-585.003769573505
 11
-1141.462782011491
 21
-584.7347763027296
  0
LINE
  5
2EF
100
AcDbEntity
  8
frame
  6
ByLayer
 62
  256
370
   -1
100
AcDbLine
 10
-1135.861576492352
 20
-585.2730755553468
 11
-1138.671465372257
 21
-585.0019614490272
  0
LINE
  5
2F0
100
AcDbEntity
  8
frame
  6
ByLayer
 62
  256
370
   -1
100
AcDbLine
 10
-1133.071261669371
 20
-585.5444959796341
 11
-1135.880901582944
 21
-585.2712033860839
  0
LINE
  5
2F1
100
AcDbEntity
  8
frame
  6
ByLayer
 62
  256
370
   -1
100
AcDbLine
 10
-1127.492939122221
 20
-586.093905951227
 11
-1130.302060119655
 21
-585.8160834281581
  0
LINE
  5
2F2
100
AcDbEntity
  8
frame
  6
ByLayer
 62
  256
370
   -1
100
AcDbLine
 10
-1130.281713584018
 20
-585.8180873031122
 11
-1133.091097536769
 21
-585.5425585706456
  0
LINE
  5
2F3
100
AcDbEntity
  8
frame
  6
ByLayer
 62
  256
370
   -1
100
AcDbLine
 10
-1124.704945162238
 20
-586.3720083181702
 11
-1127.513796209864
 21
-586.0918343528125
  0
LINE
  5
2F4
100
AcDbEntity
  8
frame
  6
ByLayer
 62
  256
370
   -1
100
AcDbLine
 10
-1121.917738574272
 20
-586.6524507669253
 11
-1124.726312677597
 21
-586.3698677075929
  0
ARC
  5
2F5
100
AcDbEntity
  8
frame
  6
ByLayer
 62
  256
370
   -1
100
AcDbCircle
 10
-1405.4484057
 20
-3146.70825319
 40
2576.95932668
100
AcDbArc
 50
75.6560362076
 51
79.0164391463
  0
LINE
  5
2F6
100
AcDbEntity
  8
frame
  6
ByLayer
 62
  256
370
   -1
100
AcDbLine
 10
-760.9590261101861
 20
-651.6474223989328
 11
-767.0735603782534
 21
-650.0710793085706
  0
LINE
  5
2F7
100
AcDbEntity
  8
frame
  6
ByLayer
 62
  256
370
   -1
100
AcDbLine
 10
-754.0244522208542
 20
-653.4684884753813
 11
-761.0670477531063
 21
-651.6193168149165
  0
LINE
  5
2F8
100
AcDbEntity
  8
frame
  6
ByLayer
 62
  256
370
   -1
100
AcDbLine
 10
-746.196488161387
 20
-655.5556713722854
 11
-754.1156694237438
 21
-653.4443535114967
  0
LINE
  5
2F9
100
AcDbEntity
  8
frame
  6
ByLayer
 62
  256
370
   -1
100
AcDbLine
 10
-746.196488161387
 20
-655.5556713722854
 11
-754.1156694237438
 21
-653.4443535114967
  0
LINE
  5
2FA
100
AcDbEntity
  8
frame
  6
ByLayer
 62
  256
370
   -1
100
AcDbLine
 10
-737.5332871265203
 20
-657.8966877876057
 11
-746.2775785849019
 21
-655.5339060962726
  0
LINE
  5
2FB
100
AcDbEntity
  8
frame
  6
ByLayer
 62
  256
370
   -1
100
AcDbLine
 10
-737.5332871265203
 20
-657.8966877876057
 11
-746.2775785849019
 21
-655.5339060962726
  0
LINE
  5
2FC
100
AcDbEntity
  8
frame
  6
ByLayer
 62
  256
370
   -1
100
AcDbLine
 10
-707.0799571754288
 20
-666.3277412579896
 11
-717.9907260174064
 21
-663.2746622936963
  0
LINE
  5
2FD
100
AcDbEntity
  8
frame
  6
ByLayer
 62
  256
370
   -1
100
AcDbLine
 10
-717.9214288562653
 20
-663.2939457469383
 11
-728.1615141044572
 21
-660.4602835038527
  0
LINE
  5
2FE
100
AcDbEntity
  8
frame
  6
ByLayer
 62
  256
370
   -1
100
AcDbLine
 10
-728.0902697109291
 20
-660.4798851286653
 11
-737.6081958312558
 21
-657.8763219765663
  0
LINE
  5
2FF
100
AcDbEntity
  8
frame
  6
ByLayer
 62
  256
370
   -1
100
AcDbLine
 10
-695.6185752433892
 20
-669.5702546995266
 11
-707.1485521450722
 21
-666.3084413838044
  0
LINE
  5
300
100
AcDbEntity
  8
frame
  6
ByLayer
 62
  256
370
   -1
100
AcDbLine
 10
-683.5897157313238
 20
-673.0105359596017
 11
-695.6874251586328
 21
-669.5506706622299
  0
LINE
  5
301
100
AcDbEntity
  8
frame
  6
ByLayer
 62
  256
370
   -1
100
AcDbLine
 10
-671.0456330662964
 20
-676.6376745832131
 11
-683.6595994851514
 21
-672.9904396739705
  0
LINE
  5
302
100
AcDbEntity
  8
frame
  6
ByLayer
 62
  256
370
   -1
100
AcDbLine
 10
-658.0384724695276
 20
-680.4407820900212
 11
-671.117220345849
 21
-676.616859938687
  0
LINE
  5
303
100
AcDbEntity
  8
frame
  6
ByLayer
 62
  256
370
   -1
100
AcDbLine
 10
-644.6203159125446
 20
-684.4089796488054
 11
-658.1123697122522
 21
-680.4190526251582
  0
LINE
  5
304
100
AcDbEntity
  8
frame
  6
ByLayer
 62
  256
370
   -1
100
AcDbLine
 10
-1292.9104536
 20
-873.2200417800001
 11
-1946.00264524
 21
-873.2200417800001
  0
ARC
  5
305
100
AcDbEntity
  8
frame
  6
ByLayer
 62
  256
370
   -1
100
AcDbCircle
 10
-1314.74708905
 20
-27134.5183535
 40
26261.30739905
100
AcDbArc
 50
89.7069195367
 51
89.9523123749
  0
ARC
  5
306
100
AcDbEntity
  8
frame
  6
ByLayer
 62
  256
370
   -1
100
AcDbCircle
 10
-1093.55987154
 20
6391.026937570001
 40
7265.2476521
100
AcDbArc
 50
271.5518739659
 51
272.5355871667
  0
LINE
  5
307
100
AcDbEntity
  8
frame
  6
ByLayer
 62
  256
370
   -1
100
AcDbLine
 10
-2878.287393697956
 20
-810.464012416226
 11
-2891.260045981378
 21
-807.0109338213028
  0
LINE
  5
308
100
AcDbEntity
  8
frame
  6
ByLayer
 62
  256
370
   -1
100
AcDbLine
 10
-2851.51781256445
 20
-817.2697026777815
 11
-2865.264243303532
 21
-813.8293348608303
  0
LINE
  5
309
100
AcDbEntity
  8
frame
  6
ByLayer
 62
  256
370
   -1
100
AcDbLine
 10
-2851.51781256445
 20
-817.2697026777815
 11
-2865.264243303532
 21
-813.8293348608303
  0
LINE
  5
30A
100
AcDbEntity
  8
frame
  6
ByLayer
 62
  256
370
   -1
100
AcDbLine
 10
-2865.079190739842
 20
-813.8764003025934
 11
-2878.463327360791
 21
-810.4178668293637
  0
LINE
  5
30B
100
AcDbEntity
  8
frame
  6
ByLayer
 62
  256
370
   -1
100
AcDbLine
 10
-2823.538174345029
 20
-823.9040623600289
 11
-2837.861622662194
 21
-820.5708874593919
  0
LINE
  5
30C
100
AcDbEntity
  8
frame
  6
ByLayer
 62
  256
370
   -1
100
AcDbLine
 10
-2823.538174345029
 20
-823.9040623600289
 11
-2837.861622662194
 21
-820.5708874593919
  0
LINE
  5
30D
100
AcDbEntity
  8
frame
  6
ByLayer
 62
  256
370
   -1
100
AcDbLine
 10
-2809.221532693568
 20
-827.0977183505466
 11
-2823.759704470683
 21
-823.8535707099452
  0
LINE
  5
30E
100
AcDbEntity
  8
frame
  6
ByLayer
 62
  256
370
   -1
100
AcDbLine
 10
-2809.221532693568
 20
-827.0977183505466
 11
-2823.759704470683
 21
-823.8535707099452
  0
LINE
  5
30F
100
AcDbEntity
  8
frame
  6
ByLayer
 62
  256
370
   -1
100
AcDbLine
 10
-2780.190006425193
 20
-833.119800184253
 11
-2795.010054464028
 21
-830.1245686674789
  0
LINE
  5
310
100
AcDbEntity
  8
frame
  6
ByLayer
 62
  256
370
   -1
100
AcDbLine
 10
-2794.755040296661
 20
-830.1774928426198
 11
-2809.458745314333
 21
-827.0459929966393
  0
LINE
  5
311
100
AcDbEntity
  8
frame
  6
ByLayer
 62
  256
370
   -1
100
AcDbLine
 10
-2794.755040296661
 20
-830.1774928426198
 11
-2809.458745314333
 21
-827.0459929966393
  0
LINE
  5
312
100
AcDbEntity
  8
frame
  6
ByLayer
 62
  256
370
   -1
100
AcDbLine
 10
-2837.653894748583
 20
-820.6201632548029
 11
-2851.713429386404
 21
-817.2215816287163
  0
LINE
  5
313
100
AcDbEntity
  8
frame
  6
ByLayer
 62
  256
370
   -1
100
AcDbLine
 10
-2765.575536178924
 20
-835.9018581685202
 11
-2780.464823219994
 21
-833.0658582566598
  0
LINE
  5
314
100
AcDbEntity
  8
frame
  6
ByLayer
 62
  256
370
   -1
100
AcDbLine
 10
-2767.934588087783
 20
-835.4622532625602
 11
-2753.325907315212
 21
-838.0894986610438
  0
LINE
  5
315
100
AcDbEntity
  8
frame
  6
ByLayer
 62
  256
370
   -1
100
AcDbLine
 10
-2767.934588087783
 20
-835.4622532625602
 11
-2753.325907315212
 21
-838.0894986610438
  0
LINE
  5
316
100
AcDbEntity
  8
frame
  6
ByLayer
 62
  256
370
   -1
100
AcDbLine
 10
-2753.607622662474
 20
-838.0404961129375
 11
-2738.882785285272
 21
-840.5151124993681
  0
LINE
  5
317
100
AcDbEntity
  8
frame
  6
ByLayer
 62
  256
370
   -1
100
AcDbLine
 10
-2739.162334217051
 20
-840.4697588470061
 11
-2724.270976892066
 21
-842.799225266577
  0
LINE
  5
318
100
AcDbEntity
  8
frame
  6
ByLayer
 62
  256
370
   -1
100
AcDbLine
 10
-2739.162334217051
 20
-840.4697588470061
 11
-2724.270976892066
 21
-842.799225266577
  0
LINE
  5
319
100
AcDbEntity
  8
frame
  6
ByLayer
 62
  256
370
   -1
100
AcDbLine
 10
-2724.545509283869
 20
-842.7578403175568
 11
-2709.437268667949
 21
-844.9496358154605
  0
LINE
  5
31A
100
AcDbEntity
  8
frame
  6
ByLayer
 62
  256
370
   -1
100
AcDbLine
 10
-2709.704154309651
 20
-844.9123854691329
 11
-2694.328667059641
 21
-846.9739890905629
  0
LINE
  5
31B
100
AcDbEntity
  8
frame
  6
ByLayer
 62
  256
370
   -1
100
AcDbLine
 10
-2694.585573728857
 20
-846.9408960032898
 11
-2678.892476501605
 21
-848.8797867934386
  0
LINE
  5
31C
100
AcDbEntity
  8
frame
  6
ByLayer
 62
  256
370
   -1
100
AcDbLine
 10
-2679.137426355963
 20
-848.8507492289334
 11
-2663.076355808317
 21
-850.6744062329942
  0
LINE
  5
31D
100
AcDbEntity
  8
frame
  6
ByLayer
 62
  256
370
   -1
100
AcDbLine
 10
-2679.137426355963
 20
-848.8507492289334
 11
-2663.076355808317
 21
-850.6744062329942
  0
LINE
  5
31E
100
AcDbEntity
  8
frame
  6
ByLayer
 62
  256
370
   -1
100
AcDbLine
 10
-2663.307758361997
 20
-850.6492221809673
 11
-2646.828351150803
 21
-852.3651244441328
  0
LINE
  5
31F
100
AcDbEntity
  8
frame
  6
ByLayer
 62
  256
370
   -1
100
AcDbLine
 10
-2647.045013518963
 20
-852.3435180001624
 11
-2630.09690630107
 21
-853.9591445676258
  0
LINE
  5
320
100
AcDbEntity
  8
frame
  6
ByLayer
 62
  256
370
   -1
100
AcDbLine
 10
-2630.298023344486
 20
-853.9407919085414
 11
-2612.83085277674
 21
-855.4636218254955
  0
LINE
  5
321
100
AcDbEntity
  8
frame
  6
ByLayer
 62
  256
370
   -1
100
AcDbLine
 10
-2630.298023344486
 20
-853.9407919085414
 11
-2612.83085277674
 21
-855.4636218254955
  0
LINE
  5
322
100
AcDbEntity
  8
frame
  6
ByLayer
 62
  256
370
   -1
100
AcDbLine
 10
-2613.015981068052
 20
-855.4481747361356
 11
-2594.9793838073
 21
-856.8856870477733
  0
LINE
  5
323
100
AcDbEntity
  8
frame
  6
ByLayer
 62
  256
370
   -1
100
AcDbLine
 10
-2595.148403934586
 20
-856.872792689376
 11
-2576.492016637676
 21
-858.2324664408903
  0
LINE
  5
324
100
AcDbEntity
  8
frame
  6
ByLayer
 62
  256
370
   -1
100
AcDbLine
 10
-2576.645088347486
 20
-858.221782756208
 11
-2557.318547671265
 21
-859.5110969927919
  0
LINE
  5
325
100
AcDbEntity
  8
frame
  6
ByLayer
 62
  256
370
   -1
100
AcDbLine
 10
-2557.456061890577
 20
-859.502303723314
 11
-2537.409004491892
 21
-860.7287374901603
  0
LINE
  5
326
100
AcDbEntity
  8
frame
  6
ByLayer
 62
  256
370
   -1
100
AcDbLine
 10
-2537.531535536633
 20
-860.7215431927759
 11
-2516.713598072331
 21
-861.8925755350778
  0
LINE
  5
327
100
AcDbEntity
  8
frame
  6
ByLayer
 62
  256
370
   -1
100
AcDbLine
 10
-2516.821858512519
 20
-861.886721227398
 11
-2495.182677639448
 21
-863.0098311903481
  0
LINE
  5
328
100
AcDbEntity
  8
frame
  6
ByLayer
 62
  256
370
   -1
100
AcDbLine
 10
-2495.2774774726
 20
-863.0050913512315
 11
-2472.766689847607
 21
-864.087757980023
  0
LINE
  5
329
100
AcDbEntity
  8
frame
  6
ByLayer
 62
  256
370
   -1
100
AcDbLine
 10
-2495.2774774726
 20
-863.0050913512315
 11
-2472.766689847607
 21
-864.087757980023
  0
LINE
  5
32A
100
AcDbEntity
  8
frame
  6
ByLayer
 62
  256
370
   -1
100
AcDbLine
 10
-2472.848900913603
 20
-864.0839396225657
 11
-2449.416143193534
 21
-865.1336419623915
  0
LINE
  5
32B
100
AcDbEntity
  8
frame
  6
ByLayer
 62
  256
370
   -1
100
AcDbLine
 10
-2449.48666918583
 20
-865.1305824198605
 11
-2425.081578027534
 21
-866.1547995159133
  0
ARC
  5
32C
100
AcDbEntity
  8
frame
  6
ByLayer
 62
  256
370
   -1
100
AcDbCircle
 10
-1965.58706114
 20
23387.16453832
 40
24260.39247687
100
AcDbArc
 50
269.6188673498
 51
270.0462049151
  0
LINE
  5
32D
100
AcDbEntity
  8
frame
  6
ByLayer
 62
  256
370
   -1
100
AcDbLine
 10
-761.5962186358914
 20
-866.6348448464288
 11
-772.1591376696092
 21
-867.1081579517464
  0
LINE
  5
32E
100
AcDbEntity
  8
frame
  6
ByLayer
 62
  256
370
   -1
100
AcDbLine
 10
-750.6257108445316
 20
-866.1252655002536
 11
-761.6370399369681
 21
-866.6367074357416
  0
LINE
  5
32F
100
AcDbEntity
  8
frame
  6
ByLayer
 62
  256
370
   -1
100
AcDbLine
 10
-727.4270647827144
 20
-864.996499745717
 11
-739.2622751841278
 21
-865.580406690992
  0
LINE
  5
330
100
AcDbEntity
  8
frame
  6
ByLayer
 62
  256
370
   -1
100
AcDbLine
 10
-727.4270647827144
 20
-864.996499745717
 11
-739.2622751841278
 21
-865.580406690992
  0
LINE
  5
331
100
AcDbEntity
  8
frame
  6
ByLayer
 62
  256
370
   -1
100
AcDbLine
 10
-715.2486350090169
 20
-864.3798686941308
 11
-727.4593166606886
 21
-864.9981118190226
  0
LINE
  5
332
100
AcDbEntity
  8
frame
  6
ByLayer
 62
  256
370
   -1
100
AcDbLine
 10
-739.2276890443161
 20
-865.5787243443673
 11
-750.6631152593177
 21
-866.1270308931746
  0
LINE
  5
333
100
AcDbEntity
  8
frame
  6
ByLayer
 62
  256
370
   -1
100
AcDbLine
 10
-689.8571320548584
 20
-863.0484891029272
 11
-702.7458173985871
 21
-863.7316119364986
  0
LINE
  5
334
100
AcDbEntity
  8
frame
  6
ByLayer
 62
  256
370
   -1
100
AcDbLine
 10
-702.7171097035786
 20
-863.7301069296592
 11
-715.2789496693555
 21
-864.3814220173165
  0
LINE
  5
335
100
AcDbEntity
  8
frame
  6
ByLayer
 62
  256
370
   -1
100
AcDbLine
 10
-676.693293451225
 20
-862.3362889412424
 11
-689.8845112367521
 21
-863.0499553038766
  0
LINE
  5
336
100
AcDbEntity
  8
frame
  6
ByLayer
 62
  256
370
   -1
100
AcDbLine
 10
-663.2501448029988
 20
-861.5947794081668
 11
-676.719582094171
 21
-862.3377250830126
  0
LINE
  5
337
100
AcDbEntity
  8
frame
  6
ByLayer
 62
  256
370
   -1
100
AcDbLine
 10
-649.5522052284499
 20
-860.8252328518918
 11
-663.2755490891137
 21
-861.596193622098
  0
LINE
  5
338
100
AcDbEntity
  8
frame
  6
ByLayer
 62
  256
370
   -1
100
AcDbLine
 10
-635.6239688221841
 20
-860.028921141623
 11
-649.5769063161864
 21
-860.8266327903382
  0
LINE
  5
339
100
AcDbEntity
  8
frame
  6
ByLayer
 62
  256
370
   -1
100
AcDbLine
 10
-2891.091843580617
 20
-807.0563343730472
 11
-2900.000000010455
 21
-804.6185458292597
  0
ARC
  5
33A
100
AcDbEntity
  8
frame
  6
ByLayer
 62
  256
370
   -1
100
AcDbCircle
 10
-1971.895575730485
 20
-4051.890502476402
 40
3461.016162328792
100
AcDbArc
 50
92.71360515900619
 51
97.09993526542311
  0
ARC
  5
33B
100
AcDbEntity
  8
frame
  6
ByLayer
 62
  256
370
   -1
100
AcDbCircle
 10
-1232.813981304528
 20
-2071.147866451783
 40
1488.631793238693
100
AcDbArc
 50
77.6518185619326
 51
85.7277694103677
  0
ARC
  5
33C
100
AcDbEntity
  8
frame
  6
ByLayer
 62
  256
370
   -1
100
AcDbCircle
 10
-1711.6442476382
 20
94635.54200456879
 40
95510.57388447496
100
AcDbArc
 50
270.3186802294214
 51
270.488820879124
  0
ARC
  5
33D
100
AcDbEntity
  8
frame
  6
ByLayer
 62
  256
370
   -1
100
AcDbCircle
 10
-2115.299354607336
 20
6460.994897110299
 40
7333.695364733715
100
AcDbArc
 50
267.5790518091286
 51
269.908848516313
  0
LINE
  5
33E
100
AcDbEntity
  8
frame
  6
ByLayer
 62
  256
370
   -1
100
AcDbLine
 10
-2857.84286381128
 20
-702.4056956165613
 11
-2843.435696499901
 21
-694.7649955898014
  0
LINE
  5
33F
100
AcDbEntity
  8
frame
  6
ByLayer
 62
  256
370
   -1
100
AcDbLine
 10
-2872.084399884239
 20
-710.3149528411019
 11
-2857.84286381128
 21
-702.4056956165613
  0
LINE
  5
340
100
AcDbEntity
  8
frame
  6
ByLayer
 62
  256
370
   -1
100
AcDbLine
 10
-2899.801739526628
 20
-726.7105702009438
 11
-2886.093095021711
 21
-718.4356250927779
  0
LINE
  5
341
100
AcDbEntity
  8
frame
  6
ByLayer
 62
  256
370
   -1
100
AcDbLine
 10
-2886.093095021711
 20
-718.4356250927779
 11
-2872.084399884239
 21
-710.3149528411019
  0
LINE
  5
342
100
AcDbEntity
  8
frame
  6
ByLayer
 62
  256
370
   -1
100
AcDbLine
 10
-2843.435696499901
 20
-694.7649955898014
 11
-2828.930107647168
 21
-687.4499949314677
  0
LINE
  5
343
100
AcDbEntity
  8
frame
  6
ByLayer
 62
  256
370
   -1
100
AcDbLine
 10
-2828.930107647168
 20
-687.4499949314677
 11
-2814.393306950147
 21
-680.5178358122055
  0
LINE
  5
344
100
AcDbEntity
  8
frame
  6
ByLayer
 62
  256
370
   -1
100
AcDbLine
 10
-2814.393306950147
 20
-680.5178358122055
 11
-2799.892014207296
 21
-674.0251383076882
  0
LINE
  5
345
100
AcDbEntity
  8
frame
  6
ByLayer
 62
  256
370
   -1
100
AcDbLine
 10
-2799.892014207296
 20
-674.0251383076882
 11
-2785.463555300567
 21
-667.9971967952783
  0
LINE
  5
346
100
AcDbEntity
  8
frame
  6
ByLayer
 62
  256
370
   -1
100
AcDbLine
 10
-2785.463555300567
 20
-667.9971967952783
 11
-2771.099695541325
 21
-662.4107508199564
  0
LINE
  5
347
100
AcDbEntity
  8
frame
  6
ByLayer
 62
  256
370
   -1
100
AcDbLine
 10
-2771.099695541325
 20
-662.4107508199564
 11
-2756.788281052067
 21
-657.2383631669278
  0
LINE
  5
348
100
AcDbEntity
  8
frame
  6
ByLayer
 62
  256
370
   -1
100
AcDbLine
 10
-2756.788281052067
 20
-657.2383631669277
 11
-2742.517157955292
 21
-652.4525966213978
  0
LINE
  5
349
100
AcDbEntity
  8
frame
  6
ByLayer
 62
  256
370
   -1
100
AcDbLine
 10
-2742.517157955292
 20
-652.4525966213978
 11
-2728.274172373496
 21
-648.0260139685722
  0
LINE
  5
34A
100
AcDbEntity
  8
frame
  6
ByLayer
 62
  256
370
   -1
100
AcDbLine
 10
-2728.274172373496
 20
-648.0260139685722
 11
-2714.047170429179
 21
-643.9311779936562
  0
LINE
  5
34B
100
AcDbEntity
  8
frame
  6
ByLayer
 62
  256
370
   -1
100
AcDbLine
 10
-2714.047170429179
 20
-643.9311779936562
 11
-2699.823998244837
 21
-640.1406514818556
  0
LINE
  5
34C
100
AcDbEntity
  8
frame
  6
ByLayer
 62
  256
370
   -1
100
AcDbLine
 10
-2699.823998244837
 20
-640.1406514818556
 11
-2685.592501942968
 21
-636.6269972183757
  0
LINE
  5
34D
100
AcDbEntity
  8
frame
  6
ByLayer
 62
  256
370
   -1
100
AcDbLine
 10
-2685.592501942968
 20
-636.6269972183757
 11
-2671.340527646071
 21
-633.3627779884221
  0
LINE
  5
34E
100
AcDbEntity
  8
frame
  6
ByLayer
 62
  256
370
   -1
100
AcDbLine
 10
-2671.340527646071
 20
-633.3627779884221
 11
-2657.055921476643
 21
-630.3205565772
  0
LINE
  5
34F
100
AcDbEntity
  8
frame
  6
ByLayer
 62
  256
370
   -1
100
AcDbLine
 10
-2657.055921476643
 20
-630.3205565772
 11
-2642.726529557181
 21
-627.4728957699153
  0
LINE
  5
350
100
AcDbEntity
  8
frame
  6
ByLayer
 62
  256
370
   -1
100
AcDbLine
 10
-2642.726529557181
 20
-627.4728957699153
 11
-2628.340198010184
 21
-624.7923583517734
  0
LINE
  5
351
100
AcDbEntity
  8
frame
  6
ByLayer
 62
  256
370
   -1
100
AcDbLine
 10
-2628.340198010184
 20
-624.7923583517734
 11
-2613.884772958149
 21
-622.2515071079796
  0
LINE
  5
352
100
AcDbEntity
  8
frame
  6
ByLayer
 62
  256
370
   -1
100
AcDbLine
 10
-2613.884772958149
 20
-622.2515071079796
 11
-2599.348100523574
 21
-619.8229048237395
  0
LINE
  5
353
100
AcDbEntity
  8
frame
  6
ByLayer
 62
  256
370
   -1
100
AcDbLine
 10
-2599.348100523574
 20
-619.8229048237396
 11
-2584.718026828957
 21
-617.4791142842587
  0
LINE
  5
354
100
AcDbEntity
  8
frame
  6
ByLayer
 62
  256
370
   -1
100
AcDbLine
 10
-2584.718026828957
 20
-617.4791142842587
 11
-2569.98773429044
 21
-615.1944585915935
  0
LINE
  5
355
100
AcDbEntity
  8
frame
  6
ByLayer
 62
  256
370
   -1
100
AcDbLine
 10
-2569.98773429044
 20
-615.1944585915935
 11
-2555.212439737794
 21
-612.9637245311932
  0
LINE
  5
356
100
AcDbEntity
  8
frame
  6
ByLayer
 62
  256
370
   -1
100
AcDbLine
 10
-2555.212439737794
 20
-612.9637245311932
 11
-2540.48738220313
 21
-610.7949012648894
  0
LINE
  5
357
100
AcDbEntity
  8
frame
  6
ByLayer
 62
  256
370
   -1
100
AcDbLine
 10
-2540.48738220313
 20
-610.7949012648894
 11
-2525.908467755262
 21
-608.69619799412
  0
LINE
  5
358
100
AcDbEntity
  8
frame
  6
ByLayer
 62
  256
370
   -1
100
AcDbLine
 10
-2525.908467755262
 20
-608.69619799412
 11
-2511.571602463008
 21
-606.6758239203232
  0
LINE
  5
359
100
AcDbEntity
  8
frame
  6
ByLayer
 62
  256
370
   -1
100
AcDbLine
 10
-2511.571602463008
 20
-606.6758239203232
 11
-2497.572692395182
 21
-604.7419882449367
  0
LINE
  5
35A
100
AcDbEntity
  8
frame
  6
ByLayer
 62
  256
370
   -1
100
AcDbLine
 10
-2497.572692395182
 20
-604.7419882449367
 11
-2484.007643620601
 21
-602.9029001693987
  0
LINE
  5
35B
100
AcDbEntity
  8
frame
  6
ByLayer
 62
  256
370
   -1
100
AcDbLine
 10
-2484.007643620601
 20
-602.9029001693987
 11
-2470.972362208081
 21
-601.1667688951469
  0
ARC
  5
35C
100
AcDbEntity
  8
frame
  6
ByLayer
 62
  256
370
   -1
100
AcDbCircle
 10
-1971.895575730485
 20
-4051.890502476402
 40
3486.016162328792
100
AcDbArc
 50
92.71360515900619
 51
97.09993526542311
  0
LINE
  5
35D
100
AcDbEntity
  8
frame
  6
ByLayer
 62
  256
370
   -1
100
AcDbLine
 10
-2409.256528189917
 20
-593.3717893571774
 11
-2402.614988238665
 21
-592.5862133321937
  0
LINE
  5
35E
100
AcDbEntity
  8
frame
  6
ByLayer
 62
  256
370
   -1
100
AcDbLine
 10
-2417.099177984941
 20
-594.3177865935133
 11
-2409.256528189917
 21
-593.3717893571774
  0
LINE
  5
35F
100
AcDbEntity
  8
frame
  6
ByLayer
 62
  256
370
   -1
100
AcDbLine
 10
-2426.047031554921
 20
-595.4159958397635
 11
-2417.099177984941
 21
-594.3177865935133
  0
LINE
  5
360
100
AcDbEntity
  8
frame
  6
ByLayer
 62
  256
370
   -1
100
AcDbLine
 10
-2436.004182831041
 20
-596.6582078944898
 11
-2426.047031554921
 21
-595.4159958397635
  0
LINE
  5
361
100
AcDbEntity
  8
frame
  6
ByLayer
 62
  256
370
   -1
100
AcDbLine
 10
-2446.874725744485
 20
-598.0362135562547
 11
-2436.004182831041
 21
-596.6582078944899
  0
LINE
  5
362
100
AcDbEntity
  8
frame
  6
ByLayer
 62
  256
370
   -1
100
AcDbLine
 10
-2458.562754226436
 20
-599.5418036236197
 11
-2446.874725744485
 21
-598.0362135562546
  0
LINE
  5
363
100
AcDbEntity
  8
frame
  6
ByLayer
 62
  256
370
   -1
100
AcDbLine
 10
-2470.972362208081
 20
-601.1667688951469
 11
-2458.562754226436
 21
-599.5418036236197
  0
LINE
  5
364
100
AcDbEntity
  8
frame
  6
ByLayer
 62
  256
370
   -1
100
AcDbLine
 10
-1841.056131784321
 20
-555.4385716435694
 11
-1827.191682724283
 21
-554.9161157304868
  0
LINE
  5
365
100
AcDbEntity
  8
frame
  6
ByLayer
 62
  256
370
   -1
100
AcDbLine
 10
-1854.643954401411
 20
-555.9589192426783
 11
-1841.056131784321
 21
-555.4385716435694
  0
LINE
  5
366
100
AcDbEntity
  8
frame
  6
ByLayer
 62
  256
370
   -1
100
AcDbLine
 10
-1867.984137482108
 20
-556.4787658786253
 11
-1854.643954401411
 21
-555.9589192426782
  0
LINE
  5
367
100
AcDbEntity
  8
frame
  6
ByLayer
 62
  256
370
   -1
100
AcDbLine
 10
-1894.037532660531
 20
-557.5233856642806
 11
-1881.105667932963
 21
-556.9997189022222
  0
LINE
  5
368
100
AcDbEntity
  8
frame
  6
ByLayer
 62
  256
370
   -1
100
AcDbLine
 10
-1881.105667932963
 20
-556.9997189022222
 11
-1867.984137482107
 21
-556.4787658786254
  0
LINE
  5
369
100
AcDbEntity
  8
frame
  6
ByLayer
 62
  256
370
   -1
100
AcDbLine
 10
-1906.808718571365
 20
-558.0513735156121
 11
-1894.037532660531
 21
-557.5233856642806
  0
LINE
  5
36A
100
AcDbEntity
  8
frame
  6
ByLayer
 62
  256
370
   -1
100
AcDbLine
 10
-1919.448212572019
 20
-558.5852898070289
 11
-1906.808718571365
 21
-558.0513735156121
  0
LINE
  5
36B
100
AcDbEntity
  8
frame
  6
ByLayer
 62
  256
370
   -1
100
AcDbLine
 10
-1931.985001569046
 20
-559.126741889342
 11
-1919.448212572019
 21
-558.5852898070289
  0
LINE
  5
36C
100
AcDbEntity
  8
frame
  6
ByLayer
 62
  256
370
   -1
100
AcDbLine
 10
-1944.448072468999
 20
-559.6773371133637
 11
-1931.985001569046
 21
-559.126741889342
  0
LINE
  5
36D
100
AcDbEntity
  8
frame
  6
ByLayer
 62
  256
370
   -1
100
AcDbLine
 10
-1956.866412178431
 20
-560.2386828299054
 11
-1944.448072468999
 21
-559.6773371133637
  0
LINE
  5
36E
100
AcDbEntity
  8
frame
  6
ByLayer
 62
  256
370
   -1
100
AcDbLine
 10
-1975.877810019818
 20
-561.1253757330769
 11
-1962.991877280041
 21
-560.5208079137344
  0
LINE
  5
36F
100
AcDbEntity
  8
frame
  6
ByLayer
 62
  256
370
   -1
100
AcDbLine
 10
-1962.991877280041
 20
-560.5208079137344
 11
-1950.087876684155
 21
-559.9293589704887
  0
LINE
  5
370
100
AcDbEntity
  8
frame
  6
ByLayer
 62
  256
370
   -1
100
AcDbLine
 10
-1988.716158062225
 20
-561.7410464371533
 11
-1975.877810019818
 21
-561.1253757330769
  0
LINE
  5
371
100
AcDbEntity
  8
frame
  6
ByLayer
 62
  256
370
   -1
100
AcDbLine
 10
-2001.476101050911
 20
-562.3657227486457
 11
-1988.716158062225
 21
-561.7410464371533
  0
LINE
  5
372
100
AcDbEntity
  8
frame
  6
ByLayer
 62
  256
370
   -1
100
AcDbLine
 10
-2014.126818629522
 20
-562.9973073902368
 11
-2001.476101050911
 21
-562.3657227486457
  0
LINE
  5
373
100
AcDbEntity
  8
frame
  6
ByLayer
 62
  256
370
   -1
100
AcDbLine
 10
-2026.637490441706
 20
-563.6337030846089
 11
-2014.126818629522
 21
-562.9973073902368
  0
LINE
  5
374
100
AcDbEntity
  8
frame
  6
ByLayer
 62
  256
370
   -1
100
AcDbLine
 10
-2038.977296131111
 20
-564.2728125544445
 11
-2026.637490441706
 21
-563.6337030846089
  0
LINE
  5
375
100
AcDbEntity
  8
frame
  6
ByLayer
 62
  256
370
   -1
100
AcDbLine
 10
-2051.115415341384
 20
-564.9125385224261
 11
-2038.977296131111
 21
-564.2728125544445
  0
LINE
  5
376
100
AcDbEntity
  8
frame
  6
ByLayer
 62
  256
370
   -1
100
AcDbLine
 10
-2063.021027716171
 20
-565.5507837112361
 11
-2051.115415341384
 21
-564.9125385224261
  0
LINE
  5
377
100
AcDbEntity
  8
frame
  6
ByLayer
 62
  256
370
   -1
100
AcDbLine
 10
-2074.663312899122
 20
-566.185450843557
 11
-2063.021027716171
 21
-565.5507837112361
  0
LINE
  5
378
100
AcDbEntity
  8
frame
  6
ByLayer
 62
  256
370
   -1
100
AcDbLine
 10
-2086.011450533882
 20
-566.8144426420711
 11
-2074.663312899122
 21
-566.185450843557
  0
LINE
  5
379
100
AcDbEntity
  8
frame
  6
ByLayer
 62
  256
370
   -1
100
AcDbLine
 10
-2097.0346202641
 20
-567.435661829461
 11
-2086.011450533882
 21
-566.8144426420711
  0
LINE
  5
37A
100
AcDbEntity
  8
frame
  6
ByLayer
 62
  256
370
   -1
100
AcDbLine
 10
-2107.702001733423
 20
-568.0470111284091
 11
-2097.0346202641
 21
-567.435661829461
  0
LINE
  5
37B
100
AcDbEntity
  8
frame
  6
ByLayer
 62
  256
370
   -1
100
AcDbLine
 10
-2117.982774585498
 20
-568.6463932615977
 11
-2107.702001733423
 21
-568.0470111284091
  0
LINE
  5
37C
100
AcDbEntity
  8
frame
  6
ByLayer
 62
  256
370
   -1
100
AcDbLine
 10
-2127.846118463973
 20
-569.2317109517095
 11
-2117.982774585498
 21
-568.6463932615977
  0
LINE
  5
37D
100
AcDbEntity
  8
frame
  6
ByLayer
 62
  256
370
   -1
100
AcDbLine
 10
-2137.261213012494
 20
-569.8008669214267
 11
-2127.846118463973
 21
-569.2317109517095
  0
LINE
  5
37E
100
AcDbEntity
  8
frame
  6
ByLayer
 62
  256
370
   -1
100
AcDbLine
 10
-1382.26157952
 20
-546.6573913899997
 11
-1600.23658264
 21
-546.9122850500003
  0
LINE
  5
37F
100
AcDbEntity
  8
frame
  6
ByLayer
 62
  256
370
   -1
100
AcDbLine
 10
-1600.23668435
 20
-546.9066805700003
 11
-1665.42013709
 21
-549.1690453600003
  0
LINE
  5
380
100
AcDbEntity
  8
frame
  6
ByLayer
 62
  256
370
   -1
100
AcDbLine
 10
-1702.839109511466
 20
-550.4676870253718
 11
-1685.18061167
 21
-549.8539254999998
  0
LINE
  5
381
100
AcDbEntity
  8
frame
  6
ByLayer
 62
  256
370
   -1
100
AcDbLine
 10
-1685.18061167
 20
-549.8539254999998
 11
-1665.42057151
 21
-549.1690627899998
  0
LINE
  5
382
100
AcDbEntity
  8
frame
  6
ByLayer
 62
  256
370
   -1
100
AcDbLine
 10
-1736.57256629517
 20
-551.6470940130903
 11
-1719.960098751006
 21
-551.0648740794647
  0
LINE
  5
383
100
AcDbEntity
  8
frame
  6
ByLayer
 62
  256
370
   -1
100
AcDbLine
 10
-1719.960098751006
 20
-551.0648740794647
 11
-1702.839109511466
 21
-550.4676870253718
  0
LINE
  5
384
100
AcDbEntity
  8
frame
  6
ByLayer
 62
  256
370
   -1
100
AcDbLine
 10
-1768.38788392359
 20
-552.7730619221866
 11
-1752.705499050514
 21
-552.2159541770604
  0
LINE
  5
385
100
AcDbEntity
  8
frame
  6
ByLayer
 62
  256
370
   -1
100
AcDbLine
 10
-1752.705499050514
 20
-552.2159541770604
 11
-1736.57256629517
 21
-551.6470940130903
  0
LINE
  5
386
100
AcDbEntity
  8
frame
  6
ByLayer
 62
  256
370
   -1
100
AcDbLine
 10
-1798.516957649152
 20
-553.8584495591542
 11
-1783.648707820951
 21
-553.3200245992807
  0
LINE
  5
387
100
AcDbEntity
  8
frame
  6
ByLayer
 62
  256
370
   -1
100
AcDbLine
 10
-1783.648707820951
 20
-553.3200245992807
 11
-1768.38788392359
 21
-552.7730619221866
  0
LINE
  5
388
100
AcDbEntity
  8
frame
  6
ByLayer
 62
  256
370
   -1
100
AcDbLine
 10
-1813.021620314744
 20
-554.3899441526191
 11
-1798.516957649152
 21
-553.8584495591542
  0
LINE
  5
389
100
AcDbEntity
  8
frame
  6
ByLayer
 62
  256
370
   -1
100
AcDbLine
 10
-1827.191682724283
 20
-554.9161157304868
 11
-1813.021620314744
 21
-554.3899441526191
  0
ARC
  5
38A
100
AcDbEntity
  8
frame
  6
ByLayer
 62
  256
370
   -1
100
AcDbCircle
 10
-1379.82770521
 20
-2628.01054513
 40
2081.35457677
100
AcDbArc
 50
85.225240697
 51
90.06699999999999
  0
LINE
  5
38B
100
AcDbEntity
  8
frame
  6
ByLayer
 62
  256
370
   -1
100
AcDbLine
 10
-1150.323406981882
 20
-558.7926128077493
 11
-1153.134642775438
 21
-558.533358939404
  0
LINE
  5
38C
100
AcDbEntity
  8
frame
  6
ByLayer
 62
  256
370
   -1
100
AcDbLine
 10
-1164.381516053592
 20
-557.5135162034409
 11
-1167.193681926651
 21
-557.262560445374
  0
ARC
  5
38D
100
AcDbEntity
  8
frame
  6
ByLayer
 62
  256
370
   -1
100
AcDbCircle
 10
-1852.33990334
 20
-8307.1301389
 40
7780.09708903
100
AcDbArc
 50
84.9938453356
 51
85.23887193660001
  0
ARC
  5
38E
100
AcDbEntity
  8
frame
  6
ByLayer
 62
  256
370
   -1
100
AcDbCircle
 10
-1852.33990334
 20
-8307.1301389
 40
7780.09708903
100
AcDbArc
 50
84.9938453356
 51
85.23887193660001
  0
ARC
  5
38F
100
AcDbEntity
  8
frame
  6
ByLayer
 62
  256
370
   -1
100
AcDbCircle
 10
-1852.33990334
 20
-8307.1301389
 40
7780.09708903
100
AcDbArc
 50
84.9938453356
 51
85.23887193660001
  0
LINE
  5
390
100
AcDbEntity
  8
frame
  6
ByLayer
 62
  256
370
   -1
100
AcDbLine
 10
-1166.603668264349
 20
-582.4145611524431
 11
-1169.415834137408
 21
-582.1636053943762
  0
LINE
  5
391
100
AcDbEntity
  8
frame
  6
ByLayer
 62
  256
370
   -1
100
AcDbLine
 10
-1166.603668264349
 20
-582.4145611524431
 11
-1169.415834137408
 21
-582.1636053943762
  0
LINE
  5
392
100
AcDbEntity
  8
frame
  6
ByLayer
 62
  256
370
   -1
100
AcDbLine
 10
-1152.619180435581
 20
-583.6869781189856
 11
-1155.430416229137
 21
-583.4277242506405
  0
LINE
  5
393
100
AcDbEntity
  8
frame
  6
ByLayer
 62
  256
370
   -1
100
AcDbLine
 10
-1158.757707382714
 20
-558.0201183273111
 11
-1161.569522207448
 21
-557.7660162801913
  0
LINE
  5
394
100
AcDbEntity
  8
frame
  6
ByLayer
 62
  256
370
   -1
100
AcDbLine
 10
-1153.134642775438
 20
-558.533358939404
 11
-1155.946078573879
 21
-558.2758799964868
  0
LINE
  5
395
100
AcDbEntity
  8
frame
  6
ByLayer
 62
  256
370
   -1
100
AcDbLine
 10
-1155.946078573879
 20
-558.2758799964868
 11
-1158.757707382714
 21
-558.0201183273111
  0
LINE
  5
396
100
AcDbEntity
  8
frame
  6
ByLayer
 62
  256
370
   -1
100
AcDbLine
 10
-1161.569522207448
 20
-557.7660162801913
 11
-1164.381516053592
 21
-557.5135162034409
  0
LINE
  5
397
100
AcDbEntity
  8
frame
  6
ByLayer
 62
  256
370
   -1
100
AcDbLine
 10
-1167.193681926652
 20
-557.262560445374
 11
-1170.006012832135
 21
-557.0130913543046
  0
LINE
  5
398
100
AcDbEntity
  8
frame
  6
ByLayer
 62
  256
370
   -1
100
AcDbLine
 10
-1170.006012832135
 20
-557.0130913543046
 11
-1172.81850177555
 21
-556.7650512785465
  0
LINE
  5
399
100
AcDbEntity
  8
frame
  6
ByLayer
 62
  256
370
   -1
100
AcDbLine
 10
-1122.223588103324
 20
-561.4954557606677
 11
-1125.03243915095
 21
-561.2152817953101
  0
LINE
  5
39A
100
AcDbEntity
  8
frame
  6
ByLayer
 62
  256
370
   -1
100
AcDbLine
 10
-1127.841560148384
 20
-560.9374592722411
 11
-1130.650944101135
 21
-560.6619305397746
  0
LINE
  5
39B
100
AcDbEntity
  8
frame
  6
ByLayer
 62
  256
370
   -1
100
AcDbLine
 10
-1130.650944101135
 20
-560.6619305397746
 11
-1133.460584014709
 21
-560.3886379462244
  0
LINE
  5
39C
100
AcDbEntity
  8
frame
  6
ByLayer
 62
  256
370
   -1
100
AcDbLine
 10
-1136.270472894614
 20
-560.1175238399048
 11
-1139.080603746359
 21
-559.8485305691295
  0
LINE
  5
39D
100
AcDbEntity
  8
frame
  6
ByLayer
 62
  256
370
   -1
100
AcDbLine
 10
-1139.080603746359
 20
-559.8485305691295
 11
-1141.89096957545
 21
-559.5816004822123
  0
LINE
  5
39E
100
AcDbEntity
  8
frame
  6
ByLayer
 62
  256
370
   -1
100
AcDbLine
 10
-1141.89096957545
 20
-559.5816004822123
 11
-1144.701563387395
 21
-559.3166759274673
  0
LINE
  5
39F
100
AcDbEntity
  8
frame
  6
ByLayer
 62
  256
370
   -1
100
AcDbLine
 10
-1147.512378187704
 20
-559.0536992532082
 11
-1150.323406981882
 21
-558.7926128077493
  0
LINE
  5
3A0
100
AcDbEntity
  8
frame
  6
ByLayer
 62
  256
370
   -1
100
AcDbLine
 10
-1144.701563387396
 20
-559.3166759274673
 11
-1147.512378187704
 21
-559.0536992532082
  0
LINE
  5
3A1
100
AcDbEntity
  8
frame
  6
ByLayer
 62
  256
370
   -1
100
AcDbLine
 10
-1133.460584014709
 20
-560.3886379462244
 11
-1136.270472894614
 21
-560.1175238399048
  0
LINE
  5
3A2
100
AcDbEntity
  8
frame
  6
ByLayer
 62
  256
370
   -1
100
AcDbLine
 10
-1125.032439150951
 20
-561.2152817953101
 11
-1127.841560148385
 21
-560.9374592722411
  0
ARC
  5
3A3
100
AcDbEntity
  8
frame
  6
ByLayer
 62
  256
370
   -1
100
AcDbCircle
 10
-1232.813981304528
 20
-2071.147866451783
 40
1513.631793238693
100
AcDbArc
 50
77.6518185619326
 51
85.7277694103677
  0
LINE
  5
3A4
100
AcDbEntity
  8
frame
  6
ByLayer
 62
  256
370
   -1
100
AcDbLine
 10
-1119.415014
 20
-561.7780388200001
 11
-1122.223588103325
 21
-561.4954557606677
  0
ARC
  5
3A5
100
AcDbEntity
  8
frame
  6
ByLayer
 62
  256
370
   -1
100
AcDbCircle
 10
-1405.4484057
 20
-3146.70825319
 40
2601.95932668
100
AcDbArc
 50
75.6560362076
 51
79.0164391463
  0
LINE
  5
3A6
100
AcDbEntity
  8
frame
  6
ByLayer
 62
  256
370
   -1
100
AcDbLine
 10
-721.4940251786154
 20
-636.3657905350481
 11
-731.0119512989421
 21
-633.762227382949
  0
LINE
  5
3A7
100
AcDbEntity
  8
frame
  6
ByLayer
 62
  256
370
   -1
100
AcDbLine
 10
-731.0119512989421
 20
-633.762227382949
 11
-739.7562427573237
 21
-631.3994456916158
  0
LINE
  5
3A8
100
AcDbEntity
  8
frame
  6
ByLayer
 62
  256
370
   -1
100
AcDbLine
 10
-754.7180195519326
 20
-627.4389561703624
 11
-760.8325538199999
 21
-625.8626130800001
  0
LINE
  5
3A9
100
AcDbEntity
  8
frame
  6
ByLayer
 62
  256
370
   -1
100
AcDbLine
 10
-747.6754240196805
 20
-629.2881278308272
 11
-754.7180195519326
 21
-627.4389561703624
  0
LINE
  5
3AA
100
AcDbEntity
  8
frame
  6
ByLayer
 62
  256
370
   -1
100
AcDbLine
 10
-731.0119512989421
 20
-633.762227382949
 11
-739.7562427573237
 21
-631.3994456916158
  0
LINE
  5
3AB
100
AcDbEntity
  8
frame
  6
ByLayer
 62
  256
370
   -1
100
AcDbLine
 10
-739.7562427573237
 20
-631.3994456916158
 11
-747.6754240196805
 21
-629.2881278308272
  0
LINE
  5
3AC
100
AcDbEntity
  8
frame
  6
ByLayer
 62
  256
370
   -1
100
AcDbLine
 10
-664.101518340599
 20
-652.6214452647637
 11
-676.7154847594539
 21
-648.9742103555211
  0
LINE
  5
3AD
100
AcDbEntity
  8
frame
  6
ByLayer
 62
  256
370
   -1
100
AcDbLine
 10
-676.7154847594539
 20
-648.9742103555211
 11
-688.8131941867629
 21
-645.5143450581493
  0
LINE
  5
3AE
100
AcDbEntity
  8
frame
  6
ByLayer
 62
  256
370
   -1
100
AcDbLine
 10
-688.8131941867629
 20
-645.5143450581493
 11
-700.343171088446
 21
-642.2525317424271
  0
LINE
  5
3AF
100
AcDbEntity
  8
frame
  6
ByLayer
 62
  256
370
   -1
100
AcDbLine
 10
-700.343171088446
 20
-642.2525317424271
 11
-711.2539399304235
 21
-639.1994527781337
  0
LINE
  5
3B0
100
AcDbEntity
  8
frame
  6
ByLayer
 62
  256
370
   -1
100
AcDbLine
 10
-711.2539399304236
 20
-639.1994527781337
 11
-721.4940251786155
 21
-636.3657905350481
  0
LINE
  5
3B1
100
AcDbEntity
  8
frame
  6
ByLayer
 62
  256
370
   -1
100
AcDbLine
 10
-651.0227704642776
 20
-656.445367416098
 11
-664.101518340599
 21
-652.6214452647637
  0
LINE
  5
3B2
100
AcDbEntity
  8
frame
  6
ByLayer
 62
  256
370
   -1
100
AcDbLine
 10
-637.53071666457
 20
-660.435294439745
 11
-651.0227704642776
 21
-656.445367416098
  0
LINE
  5
3B3
100
AcDbEntity
  8
frame
  6
ByLayer
 62
  256
370
   -1
100
AcDbLine
 10
-609.5125934313146
 20
-668.8704336248614
 11
-623.6768324755558
 21
-664.5805439659258
  0
LINE
  5
3B4
100
AcDbEntity
  8
frame
  6
ByLayer
 62
  256
370
   -1
100
AcDbLine
 10
-634.1970091948879
 20
-884.9881636425897
 11
-648.1499466888902
 21
-885.7858752913049
  0
LINE
  5
3B5
100
AcDbEntity
  8
frame
  6
ByLayer
 62
  256
370
   -1
100
AcDbLine
 10
-648.1499466888902
 20
-885.7858752913049
 11
-661.873290549554
 21
-886.5568360615111
  0
LINE
  5
3B6
100
AcDbEntity
  8
frame
  6
ByLayer
 62
  256
370
   -1
100
AcDbLine
 10
-675.3427278407262
 20
-887.299781736357
 11
-688.5339456262533
 21
-888.0134480989911
  0
LINE
  5
3B7
100
AcDbEntity
  8
frame
  6
ByLayer
 62
  256
370
   -1
100
AcDbLine
 10
-661.873290549554
 20
-886.5568360615111
 11
-675.3427278407262
 21
-887.299781736357
  0
LINE
  5
3B8
100
AcDbEntity
  8
frame
  6
ByLayer
 62
  256
370
   -1
100
AcDbLine
 10
-688.5339456262533
 20
-888.0134480989911
 11
-701.4226309699819
 21
-888.6965709325625
  0
LINE
  5
3B9
100
AcDbEntity
  8
frame
  6
ByLayer
 62
  256
370
   -1
100
AcDbLine
 10
-701.4226309699819
 20
-888.6965709325625
 11
-713.9844709357588
 21
-889.3478860202198
  0
LINE
  5
3BA
100
AcDbEntity
  8
frame
  6
ByLayer
 62
  256
370
   -1
100
AcDbLine
 10
-726.1951525874306
 20
-889.9661291451116
 11
-738.030362988844
 21
-890.5500360903867
  0
LINE
  5
3BB
100
AcDbEntity
  8
frame
  6
ByLayer
 62
  256
370
   -1
100
AcDbLine
 10
-713.9844709357588
 20
-889.3478860202198
 11
-726.1951525874306
 21
-889.9661291451116
  0
LINE
  5
3BC
100
AcDbEntity
  8
frame
  6
ByLayer
 62
  256
370
   -1
100
AcDbLine
 10
-738.030362988844
 20
-890.5500360903867
 11
-749.4657892038456
 21
-891.098342639194
  0
LINE
  5
3BD
100
AcDbEntity
  8
frame
  6
ByLayer
 62
  256
370
   -1
100
AcDbLine
 10
-749.4657892038456
 20
-891.098342639194
 11
-760.4771182962821
 21
-891.6097845746821
  0
LINE
  5
3BE
100
AcDbEntity
  8
frame
  6
ByLayer
 62
  256
370
   -1
100
AcDbLine
 10
-760.477118296282
 20
-891.6097845746821
 11
-771.0400373299998
 21
-892.0830976799997
  0
ARC
  5
3BF
100
AcDbEntity
  8
frame
  6
ByLayer
 62
  256
370
   -1
100
AcDbCircle
 10
-1093.55987154
 20
6391.026937570001
 40
7290.2476521
100
AcDbArc
 50
271.5518739659
 51
272.5355871667
  0
ARC
  5
3C0
100
AcDbEntity
  8
frame
  6
ByLayer
 62
  256
370
   -1
100
AcDbCircle
 10
-1711.6442476382
 20
94635.54200456879
 40
95535.57388447496
100
AcDbArc
 50
270.3186802294214
 51
270.488820879124
  0
ARC
  5
3C1
100
AcDbEntity
  8
frame
  6
ByLayer
 62
  256
370
   -1
100
AcDbCircle
 10
-1314.74708905
 20
-27134.5183535
 40
26236.30739905
100
AcDbArc
 50
89.7069195367
 51
89.9523123749
  0
LINE
  5
3C2
100
AcDbEntity
  8
frame
  6
ByLayer
 62
  256
370
   -1
100
AcDbLine
 10
-1292.9104536
 20
-898.2200417800001
 11
-1946.00264524
 21
-898.2200417800001
  0
ARC
  5
3C3
100
AcDbEntity
  8
frame
  6
ByLayer
 62
  256
370
   -1
100
AcDbCircle
 10
-1965.58706114
 20
23387.16453832
 40
24285.39247687
100
AcDbArc
 50
269.6188673498
 51
270.0462049151
  0
ARC
  5
3C4
100
AcDbEntity
  8
frame
  6
ByLayer
 62
  256
370
   -1
100
AcDbCircle
 10
-2115.299354607336
 20
6460.994897110299
 40
7358.695364733715
100
AcDbArc
 50
267.5790518091286
 51
269.908848516313
  0
LINE
  5
3C5
100
AcDbEntity
  8
frame
  6
ByLayer
 62
  256
370
   -1
100
AcDbLine
 10
-2473.967688028365
 20
-889.0588933841213
 11
-2450.534930308296
 21
-890.1085957239471
  0
LINE
  5
3C6
100
AcDbEntity
  8
frame
  6
ByLayer
 62
  256
370
   -1
100
AcDbLine
 10
-2450.534930308296
 20
-890.1085957239471
 11
-2426.12983915
 21
-891.1328128199999
  0
LINE
  5
3C7
100
AcDbEntity
  8
frame
  6
ByLayer
 62
  256
370
   -1
100
AcDbLine
 10
-2843.527911904579
 20
-844.9202851156305
 11
-2857.587446542399
 21
-841.5217034895438
  0
LINE
  5
3C8
100
AcDbEntity
  8
frame
  6
ByLayer
 62
  256
370
   -1
100
AcDbLine
 10
-2829.204463587414
 20
-848.2534600162675
 11
-2843.527911904579
 21
-844.9202851156305
  0
LINE
  5
3C9
100
AcDbEntity
  8
frame
  6
ByLayer
 62
  256
370
   -1
100
AcDbLine
 10
-2799.962586792627
 20
-854.6291075028495
 11
-2814.666291810298
 21
-851.4976076568689
  0
LINE
  5
3CA
100
AcDbEntity
  8
frame
  6
ByLayer
 62
  256
370
   -1
100
AcDbLine
 10
-2785.142538753792
 20
-857.6243390196236
 11
-2799.962586792627
 21
-854.6291075028495
  0
LINE
  5
3CB
100
AcDbEntity
  8
frame
  6
ByLayer
 62
  256
370
   -1
100
AcDbLine
 10
-2770.253251712722
 20
-860.460338931484
 11
-2785.142538753792
 21
-857.6243390196236
  0
LINE
  5
3CC
100
AcDbEntity
  8
frame
  6
ByLayer
 62
  256
370
   -1
100
AcDbLine
 10
-2772.359632735716
 20
-860.0675165178843
 11
-2757.750951963145
 21
-862.6947619163678
  0
LINE
  5
3CD
100
AcDbEntity
  8
frame
  6
ByLayer
 62
  256
370
   -1
100
AcDbLine
 10
-2757.750951963145
 20
-862.6947619163678
 11
-2743.026114585944
 21
-865.1693783027985
  0
LINE
  5
3CE
100
AcDbEntity
  8
frame
  6
ByLayer
 62
  256
370
   -1
100
AcDbLine
 10
-2743.026114585944
 20
-865.1693783027985
 11
-2728.134757260959
 21
-867.4988447223693
  0
LINE
  5
3CF
100
AcDbEntity
  8
frame
  6
ByLayer
 62
  256
370
   -1
100
AcDbLine
 10
-2728.134757260959
 20
-867.4988447223693
 11
-2713.026516645039
 21
-869.6906402202731
  0
LINE
  5
3D0
100
AcDbEntity
  8
frame
  6
ByLayer
 62
  256
370
   -1
100
AcDbLine
 10
-2713.026516645039
 20
-869.6906402202731
 11
-2697.651029395029
 21
-871.752243841703
  0
LINE
  5
3D1
100
AcDbEntity
  8
frame
  6
ByLayer
 62
  256
370
   -1
100
AcDbLine
 10
-2713.026516645039
 20
-869.6906402202731
 11
-2697.651029395029
 21
-871.752243841703
  0
LINE
  5
3D2
100
AcDbEntity
  8
frame
  6
ByLayer
 62
  256
370
   -1
100
AcDbLine
 10
-2697.651029395029
 20
-871.752243841703
 11
-2681.957932167777
 21
-873.6911346318518
  0
LINE
  5
3D3
100
AcDbEntity
  8
frame
  6
ByLayer
 62
  256
370
   -1
100
AcDbLine
 10
-2681.957932167777
 20
-873.6911346318518
 11
-2665.896861620132
 21
-875.5147916359126
  0
LINE
  5
3D4
100
AcDbEntity
  8
frame
  6
ByLayer
 62
  256
370
   -1
100
AcDbLine
 10
-2681.957932167777
 20
-873.6911346318518
 11
-2665.896861620132
 21
-875.5147916359126
  0
LINE
  5
3D5
100
AcDbEntity
  8
frame
  6
ByLayer
 62
  256
370
   -1
100
AcDbLine
 10
-2649.417454408939
 20
-877.2306938990781
 11
-2632.469347191046
 21
-878.8463204665416
  0
LINE
  5
3D6
100
AcDbEntity
  8
frame
  6
ByLayer
 62
  256
370
   -1
100
AcDbLine
 10
-2649.417454408939
 20
-877.2306938990781
 11
-2632.469347191046
 21
-878.8463204665416
  0
LINE
  5
3D7
100
AcDbEntity
  8
frame
  6
ByLayer
 62
  256
370
   -1
100
AcDbLine
 10
-2632.469347191046
 20
-878.8463204665416
 11
-2615.0021766233
 21
-880.3691503834956
  0
LINE
  5
3D8
100
AcDbEntity
  8
frame
  6
ByLayer
 62
  256
370
   -1
100
AcDbLine
 10
-2615.0021766233
 20
-880.3691503834956
 11
-2596.965579362548
 21
-881.8066626951334
  0
LINE
  5
3D9
100
AcDbEntity
  8
frame
  6
ByLayer
 62
  256
370
   -1
100
AcDbLine
 10
-2615.0021766233
 20
-880.3691503834956
 11
-2596.965579362548
 21
-881.8066626951334
  0
LINE
  5
3DA
100
AcDbEntity
  8
frame
  6
ByLayer
 62
  256
370
   -1
100
AcDbLine
 10
-2596.965579362548
 20
-881.8066626951334
 11
-2578.309192065638
 21
-883.1663364466477
  0
LINE
  5
3DB
100
AcDbEntity
  8
frame
  6
ByLayer
 62
  256
370
   -1
100
AcDbLine
 10
-2596.965579362548
 20
-881.8066626951334
 11
-2578.309192065638
 21
-883.1663364466477
  0
LINE
  5
3DC
100
AcDbEntity
  8
frame
  6
ByLayer
 62
  256
370
   -1
100
AcDbLine
 10
-2578.309192065638
 20
-883.1663364466477
 11
-2558.982651389417
 21
-884.4556506832316
  0
LINE
  5
3DD
100
AcDbEntity
  8
frame
  6
ByLayer
 62
  256
370
   -1
100
AcDbLine
 10
-2558.982651389417
 20
-884.4556506832316
 11
-2538.935593990732
 21
-885.6820844500779
  0
LINE
  5
3DE
100
AcDbEntity
  8
frame
  6
ByLayer
 62
  256
370
   -1
100
AcDbLine
 10
-2558.982651389417
 20
-884.4556506832316
 11
-2538.935593990732
 21
-885.6820844500779
  0
LINE
  5
3DF
100
AcDbEntity
  8
frame
  6
ByLayer
 62
  256
370
   -1
100
AcDbLine
 10
-2538.935593990732
 20
-885.6820844500779
 11
-2518.11765652643
 21
-886.8531167923798
  0
LINE
  5
3E0
100
AcDbEntity
  8
frame
  6
ByLayer
 62
  256
370
   -1
100
AcDbLine
 10
-2518.11765652643
 20
-886.8531167923798
 11
-2496.478475653359
 21
-887.9762267553299
  0
LINE
  5
3E1
100
AcDbEntity
  8
frame
  6
ByLayer
 62
  256
370
   -1
100
AcDbLine
 10
-2496.478475653359
 20
-887.9762267553299
 11
-2473.967688028365
 21
-889.0588933841213
  0
LINE
  5
3E2
100
AcDbEntity
  8
frame
  6
ByLayer
 62
  256
370
   -1
100
AcDbLine
 10
-2665.896861620132
 20
-875.5147916359126
 11
-2649.417454408939
 21
-877.2306938990781
  0
LINE
  5
3E3
100
AcDbEntity
  8
frame
  6
ByLayer
 62
  256
370
   -1
100
AcDbLine
 10
-2814.666291810298
 20
-851.4976076568689
 11
-2829.204463587414
 21
-848.2534600162675
  0
LINE
  5
3E4
100
AcDbEntity
  8
frame
  6
ByLayer
 62
  256
370
   -1
100
AcDbLine
 10
-2857.5874465424
 20
-841.5217034895438
 11
-2871.333877281482
 21
-838.0813356725926
  0
LINE
  5
3E5
100
AcDbEntity
  8
frame
  6
ByLayer
 62
  256
370
   -1
100
AcDbLine
 10
-2884.71801390243
 20
-834.6228021993629
 11
-2897.690666185852
 21
-831.1697236044398
  0
LINE
  5
3E6
100
AcDbEntity
  8
frame
  6
ByLayer
 62
  256
370
   -1
100
AcDbLine
 10
-2871.333877281481
 20
-838.0813356725927
 11
-2884.71801390243
 21
-834.6228021993629
  0
LINE
  5
3E7
100
AcDbEntity
  8
frame
  6
ByLayer
 62
  256
370
   -1
100
AcDbLine
 10
-2897.690666185852
 20
-831.1697236044398
 11
-2900.000000010455
 21
-830.5377558582808
  0
LINE
  5
3E8
100
AcDbEntity
  8
frame
  6
ByLayer
 62
  256
370
   -1
100
AcDbLine
 10
-2900.000000010455
 20
-799.9999999563677
 11
-2900.000000010455
 21
-830.5377558582808
  0
LINE
  5
3E9
100
AcDbEntity
  8
frame
  6
ByLayer
 62
  256
370
   -1
100
AcDbLine
 10
-2875.000000010455
 20
-799.9999999563677
 11
-2875.000000010455
 21
-837.1339896812736
  0
LINE
  5
3EA
100
AcDbEntity
  8
frame
  6
ByLayer
 62
  256
370
   -1
100
AcDbLine
 10
-2875.000000010455
 20
-799.9999999563677
 11
-2875.000000010455
 21
-712.0050912022837
  0
LINE
  5
3EB
100
AcDbEntity
  8
frame
  6
ByLayer
 62
  256
370
   -1
100
AcDbLine
 10
-2899.854695307896
 20
-756.2585207305285
 11
-2900.000000010455
 21
-756.3251716597215
  0
LINE
  5
3EC
100
AcDbEntity
  8
frame
  6
ByLayer
 62
  256
370
   -1
100
AcDbLine
 10
-2899.801739526628
 20
-726.7105702009438
 11
-2900.000000010455
 21
-726.9384454253761
  0
LINE
  5
3ED
100
AcDbEntity
  8
frame
  6
ByLayer
 62
  256
370
   -1
100
AcDbLine
 10
-2900.000000010455
 20
-799.9999999563677
 11
-2900.000000010455
 21
-726.9384454253761
  0
LINE
  5
3EE
100
AcDbEntity
  8
frame
  6
ByLayer
 62
  256
370
   -1
100
AcDbLine
 10
-633.2331509199998
 20
-847.6636736100002
 11
-633.2331509199998
 21
-884.9321222330979
  0
LINE
  5
3EF
100
AcDbEntity
  8
frame
  6
ByLayer
 62
  256
370
   -1
100
AcDbLine
 10
-633.2331509199998
 20
-859.889900585746
 11
-635.6481282053252
 21
-860.0303141034658
  0
LINE
  5
3F0
100
AcDbEntity
  8
frame
  6
ByLayer
 62
  256
370
   -1
100
AcDbLine
 10
-620.0387910037006
 20
-884.1649653322166
 11
-633.2331509199998
 21
-884.9321222330979
  0
LINE
  5
3F1
100
AcDbEntity
  8
frame
  6
ByLayer
 62
  256
370
   -1
100
AcDbLine
 10
-633.2331509199998
 20
-884.9321222330979
 11
-634.1970091948879
 21
-884.9881636425897
  0
LINE
  5
3F2
100
AcDbEntity
  8
frame
  6
ByLayer
 62
  256
370
   -1
100
AcDbLine
 10
-633.2331509199998
 20
-687.816290957564
 11
-644.6970987960093
 21
-684.3861392504441
  0
LINE
  5
3F3
100
AcDbEntity
  8
frame
  6
ByLayer
 62
  256
370
   -1
100
AcDbLine
 10
-623.6768324755558
 20
-664.5805439659258
 11
-633.2331509199998
 21
-661.7211780319102
  0
LINE
  5
3F4
100
AcDbEntity
  8
frame
  6
ByLayer
 62
  256
370
   -1
100
AcDbLine
 10
-633.2331509199998
 20
-661.7211780319102
 11
-637.53071666457
 21
-660.435294439745
  0
LINE
  5
3F5
100
AcDbEntity
  8
frame
  6
ByLayer
 62
  256
370
   -1
100
AcDbLine
 10
-633.2331509199998
 20
-847.6636736100002
 11
-633.2331509199998
 21
-661.7211780319102
  0
LINE
  5
3F6
100
AcDbEntity
  8
frame
  6
ByLayer
 62
  256
370
   -1
100
AcDbLine
 10
-608.2331509199998
 20
-883.4672726969133
 11
-620.0387910037006
 21
-884.1649653322166
  0
LINE
  5
3F7
100
AcDbEntity
  8
frame
  6
ByLayer
 62
  256
370
   -1
100
AcDbLine
 10
-608.2331509199998
 20
-847.6636736100002
 11
-608.2331509199998
 21
-669.3066775575962
  0
LINE
  5
3F8
100
AcDbEntity
  8
frame
  6
ByLayer
 62
  256
370
   -1
100
AcDbLine
 10
-609.5125934313146
 20
-668.8704336248614
 11
-608.2331509199998
 21
-669.3066775575962
  0
LINE
  5
3F9
100
AcDbEntity
  8
frame
  6
ByLayer
 62
  256
370
   -1
100
AcDbLine
 10
-608.2331509199998
 20
-847.6636736100002
 11
-608.2331509199998
 21
-883.4672726969133
  0
LINE
  5
3FA
100
AcDbEntity
  8
0
  6
ByLayer
 62
  256
370
   -1
100
AcDbLine
 10
-2757.9937140589
 20
-660.9075108724619
 11
-2746.176122665308
 21
-657.0164708620346
  0
LINE
  5
3FB
100
AcDbEntity
  8
0
  6
ByLayer
 62
  256
370
   -1
100
AcDbLine
 10
-2745.559599110927
 20
-656.8178922748241
 11
-2733.669505352672
 21
-653.0729919689895
  0
LINE
  5
3FC
100
AcDbEntity
  8
0
  6
ByLayer
 62
  256
370
   -1
100
AcDbLine
 10
-2733.032513288147
 20
-652.8770218700308
 11
-2721.069510490172
 21
-649.2837112056827
  0
LINE
  5
3FD
100
AcDbEntity
  8
0
  6
ByLayer
 62
  256
370
   -1
100
AcDbLine
 10
-2707.739803453861
 20
-645.471661226234
 11
-2695.544781679214
 21
-642.1559958996273
  0
LINE
  5
3FE
100
AcDbEntity
  8
0
  6
ByLayer
 62
  256
370
   -1
100
AcDbLine
 10
-2694.926922328556
 20
-641.9922420775132
 11
-2682.5715766045
 21
-638.8020341077912
  0
LINE
  5
3FF
100
AcDbEntity
  8
0
  6
ByLayer
 62
  256
370
   -1
100
AcDbLine
 10
-2681.969731494034
 20
-638.6506126656902
 11
-2669.424518846519
 21
-635.5769518448622
  0
LINE
  5
400
100
AcDbEntity
  8
0
  6
ByLayer
 62
  256
370
   -1
100
AcDbLine
 10
-2655.51999480481
 20
-632.345746568557
 11
-2642.506419388228
 21
-629.4784494215448
  0
LINE
  5
401
100
AcDbEntity
  8
0
  6
ByLayer
 62
  256
370
   -1
100
AcDbLine
 10
-2641.974901631687
 20
-629.3643656028985
 11
-2628.682830369497
 21
-626.586884980808
  0
LINE
  5
402
100
AcDbEntity
  8
0
  6
ByLayer
 62
  256
370
   -1
100
AcDbLine
 10
-2641.974901631687
 20
-629.3643656028985
 11
-2628.682830369497
 21
-626.586884980808
  0
LINE
  5
403
100
AcDbEntity
  8
0
  6
ByLayer
 62
  256
370
   -1
100
AcDbLine
 10
-2628.18031986115
 20
-626.4845681974609
 11
-2614.580209779303
 21
-623.7879938923018
  0
LINE
  5
404
100
AcDbEntity
  8
0
  6
ByLayer
 62
  256
370
   -1
100
AcDbLine
 10
-2614.108497739499
 20
-623.6968179430025
 11
-2600.170805863946
 21
-621.0722397467838
  0
LINE
  5
405
100
AcDbEntity
  8
0
  6
ByLayer
 62
  256
370
   -1
100
AcDbLine
 10
-2599.731103846934
 20
-620.9914740970776
 11
-2585.426287203625
 21
-618.4299818018086
  0
LINE
  5
406
100
AcDbEntity
  8
0
  6
ByLayer
 62
  256
370
   -1
100
AcDbLine
 10
-2585.019264169737
 20
-618.3588326688171
 11
-2570.317779784622
 21
-615.8515160665072
  0
LINE
  5
407
100
AcDbEntity
  8
0
  6
ByLayer
 62
  256
370
   -1
100
AcDbLine
 10
-2569.943612434327
 20
-615.7891620423215
 11
-2554.815917333357
 21
-613.3271109249802
  0
LINE
  5
408
100
AcDbEntity
  8
0
  6
ByLayer
 62
  256
370
   -1
100
AcDbLine
 10
-2554.474349065745
 20
-613.2727322651936
 11
-2538.89090027487
 21
-610.8470364248299
  0
LINE
  5
409
100
AcDbEntity
  8
0
  6
ByLayer
 62
  256
370
   -1
100
AcDbLine
 10
-2538.581304542217
 20
-610.799837808884
 11
-2522.512559087389
 21
-608.4015870375072
  0
LINE
  5
40A
100
AcDbEntity
  8
0
  6
ByLayer
 62
  256
370
   -1
100
AcDbLine
 10
-2522.234003556911
 20
-608.360814123826
 11
-2505.65041846408
 21
-605.9810982134454
  0
LINE
  5
40B
100
AcDbEntity
  8
0
  6
ByLayer
 62
  256
370
   -1
100
AcDbLine
 10
-2505.401727147015
 20
-605.9460486571413
 11
-2488.273759442131
 21
-603.5759573997665
  0
LINE
  5
40C
100
AcDbEntity
  8
0
  6
ByLayer
 62
  256
370
   -1
100
AcDbLine
 10
-2488.053570711487
 20
-603.545987190183
 11
-2470.3516774205
 21
-601.1766103778232
  0
LINE
  5
40D
100
AcDbEntity
  8
0
  6
ByLayer
 62
  256
370
   -1
100
AcDbLine
 10
-2470.158496542987
 20
-601.1511364168404
 11
-2451.853134691849
 21
-598.7735638415047
  0
LINE
  5
40E
100
AcDbEntity
  8
0
  6
ByLayer
 62
  256
370
   -1
100
AcDbLine
 10
-2720.4334245769
 20
-649.0972386558533
 11
-2708.369183777615
 21
-645.6472057643714
  0
LINE
  5
40F
100
AcDbEntity
  8
0
  6
ByLayer
 62
  256
370
   -1
100
AcDbLine
 10
-2668.842752343181
 20
-635.4380983004023
 11
-2656.078129798158
 21
-632.4720744204775
  0
LINE
  5
410
100
AcDbEntity
  8
0
  6
ByLayer
 62
  256
370
   -1
100
AcDbLine
 10
-2921.492740791753
 20
-730.1521115136709
 11
-2914.722991888976
 21
-726.6074339216686
  0
LINE
  5
411
100
AcDbEntity
  8
0
  6
ByLayer
 62
  256
370
   -1
100
AcDbLine
 10
-2914.205040356953
 20
-726.3400668223892
 11
-2906.904329118967
 21
-722.625165965899
  0
LINE
  5
412
100
AcDbEntity
  8
0
  6
ByLayer
 62
  256
370
   -1
100
AcDbLine
 10
-2906.423455586883
 20
-722.383726418981
 11
-2898.620511637626
 21
-718.5184123797811
  0
LINE
  5
413
100
AcDbEntity
  8
0
  6
ByLayer
 62
  256
370
   -1
100
AcDbLine
 10
-2898.165257998496
 20
-718.2957612898751
 11
-2889.888810961906
 21
-714.2998441497436
  0
LINE
  5
414
100
AcDbEntity
  8
0
  6
ByLayer
 62
  256
370
   -1
100
AcDbLine
 10
-2880.301329066276
 20
-709.7850798255994
 11
-2871.164064726832
 21
-705.5873867289394
  0
LINE
  5
415
100
AcDbEntity
  8
0
  6
ByLayer
 62
  256
370
   -1
100
AcDbLine
 10
-2860.793288369918
 20
-700.9392374530487
 11
-2850.910125223372
 21
-696.6190087269727
  0
LINE
  5
416
100
AcDbEntity
  8
0
  6
ByLayer
 62
  256
370
   -1
100
AcDbLine
 10
-2850.483341594813
 20
-696.4348068969738
 11
-2840.270323480622
 21
-692.0830254788571
  0
LINE
  5
417
100
AcDbEntity
  8
0
  6
ByLayer
 62
  256
370
   -1
100
AcDbLine
 10
-2839.836134003213
 20
-691.9004283658326
 11
-2829.321990545315
 21
-687.5369043374535
  0
LINE
  5
418
100
AcDbEntity
  8
0
  6
ByLayer
 62
  256
370
   -1
100
AcDbLine
 10
-2839.836134003213
 20
-691.9004283658326
 11
-2829.321990545315
 21
-687.5369043374535
  0
LINE
  5
419
100
AcDbEntity
  8
0
  6
ByLayer
 62
  256
370
   -1
100
AcDbLine
 10
-2828.877010390021
 20
-687.3547341622766
 11
-2818.090471212354
 21
-682.9992776054131
  0
LINE
  5
41A
100
AcDbEntity
  8
0
  6
ByLayer
 62
  256
370
   -1
100
AcDbLine
 10
-2817.631426714532
 20
-682.8165543220986
 11
-2806.601221441033
 21
-678.4889753185291
  0
LINE
  5
41B
100
AcDbEntity
  8
0
  6
ByLayer
 62
  256
370
   -1
100
AcDbLine
 10
-2806.124850986365
 20
-678.3048784041052
 11
-2794.879709240973
 21
-674.0249870356079
  0
LINE
  5
41C
100
AcDbEntity
  8
0
  6
ByLayer
 62
  256
370
   -1
100
AcDbLine
 10
-2794.382676766432
 20
-673.8388309812469
 11
-2782.951328173083
 21
-669.6264373295996
  0
LINE
  5
41D
100
AcDbEntity
  8
0
  6
ByLayer
 62
  256
370
   -1
100
AcDbLine
 10
-2782.43014326666
 20
-669.4376580441713
 11
-2770.841317449293
 21
-665.3125721911524
  0
LINE
  5
41E
100
AcDbEntity
  8
0
  6
ByLayer
 62
  256
370
   -1
100
AcDbLine
 10
-2782.43014326666
 20
-669.4376580441713
 11
-2770.841317449293
 21
-665.3125721911524
  0
LINE
  5
41F
100
AcDbEntity
  8
0
  6
ByLayer
 62
  256
370
   -1
100
AcDbLine
 10
-2770.292257414128
 20
-665.120722862635
 11
-2758.574683996679
 21
-661.1027548900229
  0
LINE
  5
420
100
AcDbEntity
  8
0
  6
ByLayer
 62
  256
370
   -1
100
AcDbLine
 10
-2870.740860710766
 20
-705.3953420787212
 11
-2861.216282155802
 21
-701.1264761264641
  0
LINE
  5
421
100
AcDbEntity
  8
0
  6
ByLayer
 62
  256
370
   -1
100
AcDbLine
 10
-2889.450551768914
 20
-714.0908678444723
 11
-2880.729331268928
 21
-709.9841576851873
  0
LINE
  5
422
100
AcDbEntity
  8
0
  6
ByLayer
 62
  256
370
   -1
100
AcDbLine
 10
-2934.541753451243
 20
-737.3105818285027
 11
-2928.920118090696
 21
-734.1657810108109
  0
LINE
  5
423
100
AcDbEntity
  8
0
  6
ByLayer
 62
  256
370
   -1
100
AcDbLine
 10
-2928.273641734952
 20
-733.8103716509997
 11
-2922.063584791321
 21
-730.4557274052636
  0
ARC
  5
424
100
AcDbEntity
  8
0
  6
ByLayer
 62
  256
370
   -1
100
AcDbCircle
 10
-2849.111042256236
 20
-892.0339377106128
 40
176.7419680514698
100
AcDbArc
 50
118.9053440643507
 51
148.6191133087422
  0
LINE
  5
425
100
AcDbEntity
  8
0
  6
ByLayer
 62
  256
370
   -1
100
AcDbLine
 10
-2451.853134691849
 20
-598.7735638415047
 11
-2399.08153329792
 21
-593.4556919800405
  0
LINE
  5
426
100
AcDbEntity
  8
frame
  6
ByLayer
 62
  256
370
   -1
100
AcDbLine
 10
-2260.000000010455
 20
-799.9999999563678
 11
-2260.000000010455
 21
-712.0050912022838
  0
LINE
  5
427
100
AcDbEntity
  8
frame
  6
ByLayer
 62
  256
370
   -1
100
AcDbLine
 10
-2285.000000010455
 20
-799.9999999563678
 11
-2285.000000010455
 21
-726.9384454253764
  0
LINE
  5
428
100
AcDbEntity
  8
frame
  6
ByLayer
 62
  256
370
   -1
100
AcDbLine
 10
-2285.000000010455
 20
-726.9384454253764
 11
-2285.000000010455
 21
-605.0660950837904
  0
LINE
  5
429
100
AcDbEntity
  8
frame
  6
ByLayer
 62
  256
370
   -1
100
AcDbLine
 10
-2260.000000010455
 20
-712.0050912022838
 11
-2260.000000010455
 21
-602.8864844138791
  0
LINE
  5
42A
100
AcDbEntity
  8
frame
  6
ByLayer
 62
  256
370
   -1
100
AcDbLine
 10
-2260.000000010455
 20
-799.9999999563678
 11
-2260.000000010455
 21
-871.2727893518305
  0
LINE
  5
42B
100
AcDbEntity
  8
frame
  6
ByLayer
 62
  256
370
   -1
100
AcDbLine
 10
-2285.000000010455
 20
-799.9999999563678
 11
-2285.000000010455
 21
-870.7367805813051
  0
CIRCLE
  5
42C
100
AcDbEntity
  8
frame
  6
ByLayer
 62
  256
370
   -1
100
AcDbCircle
 10
-620.7331509199998
 20
-678.5614842575801
 40
12.5
  0
CIRCLE
  5
42D
100
AcDbEntity
  8
frame
  6
ByLayer
 62
  256
370
   -1
100
AcDbCircle
 10
-1019.916241412533
 20
-885.0260250652608
 40
12.5
  0
CIRCLE
  5
42E
100
AcDbEntity
  8
frame
  6
ByLayer
 62
  256
370
   -1
100
AcDbCircle
 10
-620.7331509199998
 20
-871.6785866413296
 40
12.5
  0
CIRCLE
  5
42F
100
AcDbEntity
  8
frame
  6
ByLayer
 62
  256
370
   -1
100
AcDbCircle
 10
-2887.500000010455
 20
-733.9397493484109
 40
12.5
  0
CIRCLE
  5
430
100
AcDbEntity
  8
frame
  6
ByLayer
 62
  256
370
   -1
100
AcDbCircle
 10
-2887.500000010455
 20
-820.9252826267716
 40
12.5
  0
LINE
  5
431
100
AcDbEntity
  8
frame
  6
ByLayer
 62
  256
370
   -1
100
AcDbLine
 10
-1580.49724522
 20
-736.5098420400003
 11
-1605.49724522
 21
-736.5098420400003
  0
LINE
  5
432
100
AcDbEntity
  8
frame
  6
ByLayer
 62
  256
370
   -1
100
AcDbLine
 10
-1580.49724522
 20
-761.5098420400003
 11
-1605.49724522
 21
-761.5098420400003
  0
LINE
  5
433
100
AcDbEntity
  8
frame
  6
ByLayer
 62
  256
370
   -1
100
AcDbLine
 10
-1605.49724522
 20
-761.5098420400003
 11
-1755.49724522
 21
-761.5098420400003
  0
LINE
  5
434
100
AcDbEntity
  8
frame
  6
ByLayer
 62
  256
370
   -1
100
AcDbLine
 10
-1605.49724522
 20
-736.5098420400003
 11
-1755.49724522
 21
-736.5098420400003
  0
CIRCLE
  5
435
100
AcDbEntity
  8
frame
  6
ByLayer
 62
  256
370
   -1
100
AcDbCircle
 10
-908.539198822246
 20
-466.855720546444
 40
12.5
  0
CIRCLE
  5
436
100
AcDbEntity
  8
frame
  6
ByLayer
 62
  256
370
   -1
100
AcDbCircle
 10
-911.3087539729863
 20
-604.7314622204281
 40
12.5
  0
CIRCLE
  5
437
100
AcDbEntity
  8
rollbarClearance
  6
ByLayer
 62
  256
370
   -1
100
AcDbCircle
 10
-1088.786015169811
 20
-530.2936799396948
 40
200
  0
LINE
  5
438
100
AcDbEntity
  8
rollbarClearance
  6
ByLayer
 62
  256
370
   -1
100
AcDbLine
 10
-779.0496411628279
 20
-245.4068025458569
 11
-879.9171657753416
 21
-265.1747202991526
  0
LINE
  5
439
100
AcDbEntity
  8
rollbarClearance
  6
ByLayer
 62
  256
370
   -1
100
AcDbLine
 10
-879.9171657753416
 20
-265.1747202991526
 11
-2646.17438492127
 21
-611.3240639394324
  0
LINE
  5
43A
100
AcDbEntity
  8
frame
  6
ByLayer
 62
  256
370
   -1
100
AcDbLine
 10
-879.9171657753416
 20
-265.1747202991526
 11
-1009.652829808875
 21
-897.4527432421294
  0
LINE
  5
43B
100
AcDbEntity
  8
frame
  6
ByLayer
 62
  256
370
   -1
100
AcDbLine
 10
-854.3963166242968
 20
-265.1747202991526
 11
-984.0927407568931
 21
-897.2615041779167
  0
LINE
  5
43C
100
AcDbEntity
  8
frame
  6
ByLayer
 62
  256
370
   -1
100
AcDbLine
 10
-915.9459793439078
 20
-476.9249609499666
 11
-628.1399314416616
 21
-688.6307246611027
  0
LINE
  5
43D
100
AcDbEntity
  8
frame
  6
ByLayer
 62
  256
370
   -1
100
AcDbLine
 10
-613.3263703983381
 20
-668.4922438540575
 11
-901.1324183005843
 21
-456.7864801429213
  0
ARC
  5
43E
100
AcDbEntity
  8
0
  6
ByLayer
 62
  256
370
   -1
100
AcDbCircle
 10
-1567.935787520661
 20
-2271.190736332956
 40
1948.767126120994
100
AcDbArc
 50
67.07101832774555
 51
73.24119755505534
  0
LINE
  5
43F
100
AcDbEntity
  8
0
  6
CONTINUOUS
 62
    7
370
   -1
100
AcDbLine
 10
-913.0717634009707
 20
-350.68512914778
 11
-754.6449113909708
 21
-350.68512914778
  0
LINE
  5
440
100
AcDbEntity
  8
0
  6
CONTINUOUS
 62
    7
370
   -1
100
AcDbLine
 10
-904.2871155709706
 20
-257.9349845277803
 11
-883.9127919509706
 21
-258.8486101077803
  0
LINE
  5
441
100
AcDbEntity
  8
0
  6
CONTINUOUS
 62
    7
370
   -1
100
AcDbLine
 10
-883.9127919509706
 20
-258.8486101077803
 11
-834.3136690909707
 21
-266.0752665377801
  0
LINE
  5
442
100
AcDbEntity
  8
0
  6
CONTINUOUS
 62
    7
370
   -1
100
AcDbLine
 10
-813.1491924709707
 20
-270.9937673277799
 11
-834.3136690909707
 21
-266.0752665377801
  0
LINE
  5
443
100
AcDbEntity
  8
0
  6
CONTINUOUS
 62
    7
370
   -1
100
AcDbLine
 10
-778.3969330409706
 20
-281.3195327777801
 11
-813.1491924709707
 21
-270.9937673277799
  0
LINE
  5
444
100
AcDbEntity
  8
0
  6
CONTINUOUS
 62
    7
370
   -1
100
AcDbLine
 10
-754.6449069109705
 20
-289.9706776577803
 11
-778.3969330409706
 21
-281.3195327777801
  0
LINE
  5
445
100
AcDbEntity
  8
0
  6
CONTINUOUS
 62
    7
370
   -1
100
AcDbLine
 10
-754.6449113909708
 20
-350.68512914778
 11
-754.6449069109705
 21
-289.9706776577803
  0
ARC
  5
446
100
AcDbEntity
  8
0
  6
CONTINUOUS
 62
    7
370
   -1
100
AcDbCircle
 10
-963.47029907097
 20
-905.9678539977804
 40
555.40090676
100
AcDbArc
 50
84.79360264819999
 51
84.96112565270001
  0
ARC
  5
447
100
AcDbEntity
  8
0
  6
CONTINUOUS
 62
    7
370
   -1
100
AcDbCircle
 10
-904.5313270209707
 20
-266.4719286077805
 40
8.540436380000001
100
AcDbArc
 50
88.3614193013
 51
180
  0
ELLIPSE
  5
448
100
AcDbEntity
  8
0
  6
CONTINUOUS
 62
    7
370
   -1
100
AcDbEllipse
 10
-623.5102340109704
 20
-350.6851260677803
 30
0
 11
131.13467738
 21
0
 31
0
 40
0.3505811994
 41
-3.141592586
 42
-2.8834864816
  0
ELLIPSE
  5
449
100
AcDbEntity
  8
0
  6
CONTINUOUS
 62
    7
370
   -1
100
AcDbEllipse
 10
-587.9512191209707
 20
-350.68512914778
 30
0
 11
165.51580234
 21
0
 31
0
 40
0.3642276581
 41
-2.9456898142
 42
-2.8458656197
  0
LINE
  5
44A
100
AcDbEntity
  8
0
  6
CONTINUOUS
 62
    7
370
   -1
100
AcDbLine
 10
-913.0717634009707
 20
-435.7489852104522
 11
-913.0717634009707
 21
-266.4719286077805
  0
LINE
  5
44B
100
AcDbEntity
  8
0
  6
CONTINUOUS
 62
    7
370
   -1
100
AcDbLine
 10
-904.2871155709706
 20
-438.9069831797253
 11
-904.2871155709706
 21
-257.9349845277803
  0
LINE
  5
44C
100
AcDbEntity
  8
0
  6
CONTINUOUS
 62
    7
370
   -1
100
AcDbLine
 10
-883.9127919509706
 20
-446.415173864589
 11
-883.9127919509706
 21
-258.8486101077803
  0
LINE
  5
44D
100
AcDbEntity
  8
0
  6
CONTINUOUS
 62
    7
370
   -1
100
AcDbLine
 10
-834.3136690909707
 20
-465.7844387919809
 11
-834.3136690909707
 21
-266.0752665377801
  0
LINE
  5
44E
100
AcDbEntity
  8
0
  6
CONTINUOUS
 62
    7
370
   -1
100
AcDbLine
 10
-813.1491924709707
 20
-270.9937673277799
 11
-813.1491924709707
 21
-474.529803440171
  0
LINE
  5
44F
100
AcDbEntity
  8
0
  6
CONTINUOUS
 62
    7
370
   -1
100
AcDbLine
 10
-778.3969330409706
 20
-281.3195327777801
 11
-778.3969330409706
 21
-489.5281113905185
  0
LINE
  5
450
100
AcDbEntity
  8
0
  6
CONTINUOUS
 62
    7
370
   -1
100
AcDbLine
 10
-746.2820652209708
 20
-368.2544385277801
 11
-746.2820652209708
 21
-504.1088275123883
  0
CIRCLE
  5
451
100
AcDbEntity
  8
frame
  6
ByLayer
 62
  256
370
   -1
100
AcDbCircle
 10
-1867.99724522
 20
5.435254430001145
 40
12.5
  0
CIRCLE
  5
452
100
AcDbEntity
  8
frame
  6
ByLayer
 62
  256
370
   -1
100
AcDbCircle
 10
-1867.99724522
 20
482.8137802399995
 40
12.5
  0
CIRCLE
  5
453
100
AcDbEntity
  8
frame
  6
ByLayer
 62
  256
370
   -1
100
AcDbCircle
 10
-1172.5
 20
482.8137802399995
 40
12.5
  0
CIRCLE
  5
454
100
AcDbEntity
  8
frame
  6
ByLayer
 62
  256
370
   -1
100
AcDbCircle
 10
-1172.5
 20
5.43525443000124
 40
12.5
  0
LINE
  5
455
100
AcDbEntity
  8
frame
  6
ByLayer
 62
  256
370
   -1
100
AcDbLine
 10
-879.9171657753416
 20
-265.1747202991526
 11
-854.3963166242968
 21
-265.1747202991526
  0
LINE
  5
456
100
AcDbEntity
  8
frame
  6
ByLayer
 62
  256
370
   -1
100
AcDbLine
 10
-1004.54580166
 20
-32.06474557000038
 11
-979.5458016599998
 21
-32.06474557000042
  0
LINE
  5
457
100
AcDbEntity
  8
frame
  6
ByLayer
 62
  256
370
   -1
100
AcDbLine
 10
-1004.54580166
 20
-32.06474557000038
 11
-1004.54580166
 21
520.3137802399995
  0
LINE
  5
458
100
AcDbEntity
  8
frame
  6
ByLayer
 62
  256
370
   -1
100
AcDbLine
 10
-979.5458016599998
 20
-32.06474557000042
 11
-979.5458016599997
 21
520.3137802399995
  0
LINE
  5
459
100
AcDbEntity
  8
frame
  6
ByLayer
 62
  256
370
   -1
100
AcDbLine
 10
-1004.54580166
 20
520.3137802399995
 11
-979.5458016599997
 21
520.3137802399995
  0
LINE
  5
45A
100
AcDbEntity
  8
frame
  6
ByLayer
 62
  256
370
   -1
100
AcDbLine
 10
-896.0391988222459
 20
302.9028112081987
 11
-902.4096077535913
 21
304.3832570478958
  0
LINE
  5
45B
100
AcDbEntity
  8
frame
  6
ByLayer
 62
  256
370
   -1
100
AcDbLine
 10
-921.0391988222459
 20
307.0092574614555
 11
-900.3550324796848
 21
303.9955476400021
  0
LINE
  5
45C
100
AcDbEntity
  8
frame
  6
ByLayer
 62
  256
370
   -1
100
AcDbLine
 10
-921.0391988222459
 20
181.2396941185441
 11
-921.0391988222459
 21
307.0092574614555
  0
LINE
  5
45D
100
AcDbEntity
  8
frame
  6
ByLayer
 62
  256
370
   -1
100
AcDbLine
 10
-896.0391988222459
 20
185.3461403718009
 11
-896.0391988222459
 21
302.9028112081987
  0
LINE
  5
45E
100
AcDbEntity
  8
frame
  6
ByLayer
 62
  256
370
   -1
100
AcDbLine
 10
-896.0391988222459
 20
185.3461403718009
 11
-902.4096077535912
 21
183.8656945321039
  0
LINE
  5
45F
100
AcDbEntity
  8
frame
  6
ByLayer
 62
  256
370
   -1
100
AcDbLine
 10
-921.0391988222459
 20
181.2396941185442
 11
-900.3550324796848
 21
184.2534039399975
  0
LINE
  5
460
100
AcDbEntity
  8
frame
  6
ByLayer
 62
  256
370
   -1
100
AcDbLine
 10
-896.0391988222459
 20
256.6245173350009
 11
-634.4450211399551
 21
256.6245173350009
  0
LINE
  5
461
100
AcDbEntity
  8
frame
  6
ByLayer
 62
  256
370
   -1
100
AcDbLine
 10
-896.0391988222459
 20
231.6245173350009
 11
-634.4450211399549
 21
231.6245173350009
  0
LINE
  5
462
100
AcDbEntity
  8
0
  6
CONTINUOUS
 62
    7
370
   -1
100
AcDbLine
 10
-813.1491924709705
 20
168.1479619119139
 11
-834.3136690909707
 21
163.229461121914
  0
LINE
  5
463
100
AcDbEntity
  8
0
  6
CONTINUOUS
 62
    7
370
   -1
100
AcDbLine
 10
-883.9127919509706
 20
156.0028046919142
 11
-834.3136690909707
 21
163.229461121914
  0
LINE
  5
464
100
AcDbEntity
  8
0
  6
CONTINUOUS
 62
    7
370
   -1
100
AcDbLine
 10
-904.2871155709706
 20
155.0891791119136
 11
-883.9127919509706
 21
156.0028046919142
  0
LINE
  5
465
100
AcDbEntity
  8
0
  6
CONTINUOUS
 62
    7
370
   -1
100
AcDbLine
 10
-883.9127919509706
 20
339.6758427719136
 11
-834.3136690909707
 21
332.4491863419138
  0
LINE
  5
466
100
AcDbEntity
  8
0
  6
CONTINUOUS
 62
    7
370
   -1
100
AcDbLine
 10
-778.3969330409705
 20
178.4737273619146
 11
-813.1491924709705
 21
168.1479619119139
  0
LINE
  5
467
100
AcDbEntity
  8
0
  6
CONTINUOUS
 62
    7
370
   -1
100
AcDbLine
 10
-813.1491924709705
 20
327.530685551914
 11
-834.3136690909707
 21
332.4491863419138
  0
LINE
  5
468
100
AcDbEntity
  8
0
  6
CONTINUOUS
 62
    7
370
   -1
100
AcDbLine
 10
-778.3969330409705
 20
317.2049201019145
 11
-813.1491924709705
 21
327.530685551914
  0
LWPOLYLINE
  5
469
100
AcDbEntity
  8
0
  6
CONTINUOUS
 62
    7
370
   -1
100
AcDbPolyline
 90
    7
 70
    0
 43
0
 10
-746.2820652209707
 20
211.5867811819136
 10
-746.9486309809706
 20
211.3120095519141
 10
-747.6165057409708
 20
211.0404610719139
 10
-748.2856893609703
 20
210.7721178919141
 10
-748.9561819809705
 20
210.5069620919145
 10
-749.6279835309704
 20
210.2449754019146
 10
-750.3010940809702
 20
209.9861393419144
  0
LINE
  5
46A
100
AcDbEntity
  8
0
  6
CONTINUOUS
 62
    7
370
   -1
100
AcDbLine
 10
-778.3969330409705
 20
178.4737273619146
 11
-746.2820652209707
 21
190.1708504219147
  0
LINE
  5
46B
100
AcDbEntity
  8
0
  6
CONTINUOUS
 62
    7
370
   -1
100
AcDbLine
 10
-778.3969330409705
 20
317.2049201019145
 11
-746.2820652209707
 21
305.5077969719144
  0
LWPOLYLINE
  5
46C
100
AcDbEntity
  8
0
  6
CONTINUOUS
 62
    7
370
   -1
100
AcDbPolyline
 90
    7
 70
    0
 43
0
 10
-750.3010940809702
 20
285.6925793819144
 10
-749.6280766309706
 20
285.4337815419135
 10
-748.9563308709705
 20
285.1718175319144
 10
-748.2858568709705
 20
284.906668731914
 10
-747.6166546309705
 20
284.6383165919135
 10
-746.9487240809704
 20
284.3667430519138
 10
-746.2820652209707
 20
284.0919299819146
  0
LINE
  5
46D
100
AcDbEntity
  8
0
  6
CONTINUOUS
 62
    7
370
   -1
100
AcDbLine
 10
-913.0717634009707
 20
332.0525242719135
 11
-913.0717634009707
 21
163.6261231919144
  0
LINE
  5
46E
100
AcDbEntity
  8
0
  6
CONTINUOUS
 62
    7
370
   -1
100
AcDbLine
 10
-904.2871155709706
 20
155.0891791119136
 11
-904.2871155709706
 21
340.5894683519143
  0
LINE
  5
46F
100
AcDbEntity
  8
0
  6
CONTINUOUS
 62
    7
370
   -1
100
AcDbLine
 10
-883.9127919509706
 20
156.0028046919142
 11
-883.9127919509706
 21
339.6758427719136
  0
LINE
  5
470
100
AcDbEntity
  8
0
  6
CONTINUOUS
 62
    7
370
   -1
100
AcDbLine
 10
-834.3136690909707
 20
163.229461121914
 11
-834.3136690909707
 21
332.4491863419138
  0
LINE
  5
471
100
AcDbEntity
  8
0
  6
CONTINUOUS
 62
    7
370
   -1
100
AcDbLine
 10
-813.1491924709705
 20
327.530685551914
 11
-813.1491924709705
 21
168.1479619119139
  0
LINE
  5
472
100
AcDbEntity
  8
0
  6
CONTINUOUS
 62
    7
370
   -1
100
AcDbLine
 10
-778.3969330409705
 20
317.2049201019145
 11
-778.3969330409705
 21
178.4737273619146
  0
LINE
  5
473
100
AcDbEntity
  8
0
  6
CONTINUOUS
 62
    7
370
   -1
100
AcDbLine
 10
-754.6449113909707
 20
187.1248705619141
 11
-754.6448789809706
 21
308.5537650719141
  0
LINE
  5
474
100
AcDbEntity
  8
0
  6
CONTINUOUS
 62
    7
370
   -1
100
AcDbLine
 10
-750.3010940809702
 20
209.9861393419144
 11
-750.3010898109706
 21
188.7070105619142
  0
LINE
  5
475
100
AcDbEntity
  8
0
  6
CONTINUOUS
 62
    7
370
   -1
100
AcDbLine
 10
-750.3011752809707
 20
306.9716680519138
 11
-750.3010940809702
 21
285.6925793819144
  0
LINE
  5
476
100
AcDbEntity
  8
0
  6
CONTINUOUS
 62
    7
370
   -1
100
AcDbLine
 10
-746.2820652209707
 20
305.5077969719144
 11
-746.2820652209707
 21
284.0919299819146
  0
LINE
  5
477
100
AcDbEntity
  8
0
  6
CONTINUOUS
 62
    7
370
   -1
100
AcDbLine
 10
-746.2820652209707
 20
211.5867811819136
 11
-746.2820652209707
 21
190.1708504219147
  0
ARC
  5
478
100
AcDbEntity
  8
0
  6
CONTINUOUS
 62
    7
370
   -1
100
AcDbCircle
 10
-922.2725721509705
 20
-288.1313528380862
 40
628.9780183399999
100
AcDbArc
 50
86.50350535779999
 51
88.3614193013
  0
ARC
  5
479
100
AcDbEntity
  8
0
  6
CONTINUOUS
 62
    7
370
   -1
100
AcDbCircle
 10
-922.2725721509705
 20
783.8100002319142
 40
628.9780183399999
100
AcDbArc
 50
271.6385806987
 51
273.4964946422
  0
ARC
  5
47A
100
AcDbEntity
  8
0
  6
CONTINUOUS
 62
    7
370
   -1
100
AcDbCircle
 10
-881.0396802409703
 20
35.39560413191469
 40
299.9200295
100
AcDbArc
 50
69.9869771191
 51
76.9170203756
  0
ARC
  5
47B
100
AcDbEntity
  8
0
  6
CONTINUOUS
 62
    7
370
   -1
100
AcDbCircle
 10
-881.0396802409703
 20
460.2830433319144
 40
299.9200295
100
AcDbArc
 50
283.0829796243
 51
290.0130228809
  0
ARC
  5
47C
100
AcDbEntity
  8
0
  6
CONTINUOUS
 62
    7
370
   -1
100
AcDbCircle
 10
-902.2041567909703
 20
40.31410492191452
 40
299.9200295
100
AcDbArc
 50
76.9170203756
 51
86.50350535779999
  0
ARC
  5
47D
100
AcDbEntity
  8
0
  6
CONTINUOUS
 62
    7
370
   -1
100
AcDbCircle
 10
-902.2041567909703
 20
455.3645424719145
 40
299.9200295
100
AcDbArc
 50
273.4964946422
 51
283.0829796241
  0
ARC
  5
47E
100
AcDbEntity
  8
0
  6
CONTINUOUS
 62
    7
370
   -1
100
AcDbCircle
 10
-818.2934678309707
 20
346.1592382919142
 40
152.20405795
100
AcDbArc
 50
294.7346347872
 51
296.5333425141
  0
ARC
  5
47F
100
AcDbEntity
  8
0
  6
CONTINUOUS
 62
    7
370
   -1
100
AcDbCircle
 10
-818.2865501509702
 20
149.5325855519146
 40
152.18921718
100
AcDbArc
 50
63.466805857
 51
65.26581071450001
  0
ARC
  5
480
100
AcDbEntity
  8
0
  6
CONTINUOUS
 62
    7
370
   -1
100
AcDbCircle
 10
-904.5313270209706
 20
163.6261231919144
 40
8.540436380000001
100
AcDbArc
 50
180
 51
271.6385807518
  0
ARC
  5
481
100
AcDbEntity
  8
0
  6
CONTINUOUS
 62
    7
370
   -1
100
AcDbCircle
 10
-904.5313270209706
 20
332.0525242719135
 40
8.540436380000001
100
AcDbArc
 50
88.3614193013
 51
180
  0
CIRCLE
  5
482
100
AcDbEntity
  8
internals
  6
ByLayer
 62
  256
370
   -1
100
AcDbCircle
 10
-1140
 20
-813
 40
60
  0
CIRCLE
  5
483
100
AcDbEntity
  8
internals
  6
ByLayer
 62
  256
370
   -1
100
AcDbCircle
 10
-1140
 20
-813
 40
33
  0
LINE
  5
484
100
AcDbEntity
  8
frame
  6
ByLayer
 62
  256
370
   -1
100
AcDbLine
 10
-1910.922900809222
 20
17.93525443000109
 11
-2031.633578927876
 21
67.93525443000108
  0
LINE
  5
485
100
AcDbEntity
  8
frame
  6
ByLayer
 62
  256
370
   -1
100
AcDbLine
 10
-1917.62163062
 20
-7.064745569998848
 11
-2038.332308738655
 21
42.93525443000115
  0
LINE
  5
486
100
AcDbEntity
  8
frame
  6
ByLayer
 62
  256
370
   -1
100
AcDbLine
 10
-2169.82269008
 20
42.93525443000115
 11
-2038.332308738655
 21
42.93525443000115
  0
LINE
  5
487
100
AcDbEntity
  8
frame
  6
ByLayer
 62
  256
370
   -1
100
AcDbLine
 10
-2031.633578927876
 20
67.93525443000108
 11
-2410.922900809222
 21
67.93525443000084
  0
LINE
  5
488
100
AcDbEntity
  8
frame
  6
ByLayer
 62
  256
370
   -1
100
AcDbLine
 10
-1910.922900809222
 20
470.3137802399995
 11
-2031.633578927876
 21
420.3137802399995
  0
LINE
  5
489
100
AcDbEntity
  8
frame
  6
ByLayer
 62
  256
370
   -1
100
AcDbLine
 10
-2031.633578927876
 20
420.3137802399995
 11
-2410.922900809222
 21
420.3137802399995
  0
LINE
  5
48A
100
AcDbEntity
  8
frame
  6
ByLayer
 62
  256
370
   -1
100
AcDbLine
 10
-2169.82269008
 20
445.3137802399995
 11
-2038.332308738655
 21
445.3137802399995
  0
LINE
  5
48B
100
AcDbEntity
  8
frame
  6
ByLayer
 62
  256
370
   -1
100
AcDbLine
 10
-1917.62163062
 20
495.3137802399995
 11
-2038.332308738655
 21
445.3137802399995
  0
LINE
  5
48C
100
AcDbEntity
  8
0
  6
CONTINUOUS
 62
    7
370
   -1
100
AcDbLine
 10
-838.0086899000003
 20
-40.4434975500003
 11
-867.3422592700003
 21
-43.07038432999985
  0
LINE
  5
48D
100
AcDbEntity
  8
0
  6
CONTINUOUS
 62
    7
370
   -1
100
AcDbLine
 10
-842.03024772
 20
-37.36694225000031
 11
-1085.76459081
 21
-37.36694225000031
  0
LINE
  5
48E
100
AcDbEntity
  8
0
  6
CONTINUOUS
 62
    7
370
   -1
100
AcDbLine
 10
-1067.10137078
 20
-12.24801183999989
 11
-859.9622976599999
 21
-12.24801183999989
  0
LINE
  5
48F
100
AcDbEntity
  8
0
  6
CONTINUOUS
 62
    7
370
   -1
100
AcDbLine
 10
-1066.68714011
 20
520.7756922400004
 11
-861.4005367000002
 21
520.7756922400004
  0
LINE
  5
490
100
AcDbEntity
  8
0
  6
CONTINUOUS
 62
    7
370
   -1
100
AcDbLine
 10
-1067.87220014
 20
490.28999413
 11
-1067.87233671
 21
495.3137802399995
  0
ARC
  5
491
100
AcDbEntity
  8
0
  6
CONTINUOUS
 62
    7
370
   -1
100
AcDbCircle
 10
-923.6413929299999
 20
-5311.21426463
 40
5833.74522696
100
AcDbArc
 50
91.405071568
 51
91.5367587672
  0
ARC
  5
492
100
AcDbEntity
  8
0
  6
CONTINUOUS
 62
    7
370
   -1
100
AcDbCircle
 10
-973.5485999299999
 20
-4109.43885105
 40
4631.58075919
100
AcDbArc
 50
88.4433804352
 51
89.7288789202
  0
ARC
  5
493
100
AcDbEntity
  8
0
  6
CONTINUOUS
 62
    7
370
   -1
100
AcDbCircle
 10
-969.4035101700001
 20
-4546.33859111
 40
4535.57415213
100
AcDbArc
 50
88.6154619811
 51
89.7610366071
  0
ARC
  5
494
100
AcDbEntity
  8
0
  6
CONTINUOUS
 62
    7
370
   -1
100
AcDbCircle
 10
-961.75296678
 20
-4385.30540362
 40
4374.51602406
100
AcDbArc
 50
89.8524431254
 51
91.39645602109999
  0
ARC
  5
495
100
AcDbEntity
  8
0
  6
CONTINUOUS
 62
    7
370
   -1
100
AcDbCircle
 10
-964.3093336700001
 20
4880.945397810001
 40
4391.87660807
100
AcDbArc
 50
268.6488087595
 51
271.3511912405
  0
SPLINE
  5
496
100
AcDbEntity
  8
0
  6
CONTINUOUS
 62
    7
370
   -1
100
AcDbSpline
210
0
220
0
230
0
 70
    8
 71
    3
 72
    8
 73
    4
 74
    0
 42
1e-07
 43
1e-07
 40
0
 40
0
 40
0
 40
0
 40
1
 40
1
 40
1
 40
1
 10
-835.4066526300001
 20
-42.23133129000058
 30
0
 10
-874.5813970500001
 20
-43.35477696999953
 30
0
 10
-913.7701101100001
 20
-44.16116702999955
 30
0
 10
-952.9606352600001
 20
-44.32076514000056
 30
0
  0
SPLINE
  5
497
100
AcDbEntity
  8
0
  6
CONTINUOUS
 62
    7
370
   -1
100
AcDbSpline
210
0
220
0
230
0
 70
    8
 71
    3
 72
    8
 73
    4
 74
    0
 42
1e-07
 43
1e-07
 40
0
 40
0
 40
0
 40
0
 40
1
 40
1
 40
1
 40
1
 10
-952.9606352600001
 20
-44.32076514000056
 30
0
 10
-999.3791221999998
 20
-44.50980644000055
 30
0
 10
-1045.80359358
 20
-43.62381077000049
 30
0
 10
-1092.20157486
 20
-42.23133129000058
 30
0
  0
SPLINE
  5
498
100
AcDbEntity
  8
0
  6
CONTINUOUS
 62
    7
370
   -1
100
AcDbSpline
210
0
220
0
230
0
 70
    8
 71
    3
 72
    9
 73
    5
 74
    0
 42
1e-07
 43
1e-07
 40
0
 40
0
 40
0
 40
0
 40
0.5
 40
1
 40
1
 40
1
 40
1
 10
-1092.20157486
 20
-42.23133129000058
 30
0
 10
-1084.26037061
 20
-36.7817031899998
 30
0
 10
-1073.98728408
 20
-27.72317273000039
 30
0
 10
-1069.00956098
 20
-15.41938298000008
 30
0
 10
-1068.36142041
 20
-12.08861477000056
 30
0
  0
SPLINE
  5
499
100
AcDbEntity
  8
0
  6
CONTINUOUS
 62
    7
370
   -1
100
AcDbSpline
210
0
220
0
230
0
 70
    8
 71
    3
 72
    9
 73
    5
 74
    0
 42
1e-07
 43
1e-07
 40
0
 40
0
 40
0
 40
0
 40
0.5
 40
1
 40
1
 40
1
 40
1
 10
-859.81317442
 20
-12.08861477000056
 30
0
 10
-858.9191253200001
 20
-15.67055018999997
 30
0
 10
-853.49116159
 20
-27.84051233000025
 30
0
 10
-843.3286481099999
 20
-37.10632678999951
 30
0
 10
-835.4066526300001
 20
-42.23133129000058
 30
0
  0
SPLINE
  5
49A
100
AcDbEntity
  8
0
  6
CONTINUOUS
 62
    7
370
   -1
100
AcDbSpline
210
0
220
0
230
0
 70
    8
 71
    3
 72
    8
 73
    4
 74
    0
 42
1e-07
 43
1e-07
 40
0
 40
0
 40
0
 40
0
 40
1
 40
1
 40
1
 40
1
 10
-1067.87233671
 20
495.3137802399995
 30
0
 10
-1067.87233671
 20
504.6250124500002
 30
0
 10
-1073.57570858
 20
513.7820448800001
 30
0
 10
-1080.09243243
 20
520.4327107199999
 30
0
  0
SPLINE
  5
49B
100
AcDbEntity
  8
0
  6
CONTINUOUS
 62
    7
370
   -1
100
AcDbSpline
210
0
220
0
230
0
 70
    8
 71
    3
 72
    9
 73
    5
 74
    0
 42
1e-07
 43
1e-07
 40
0
 40
0
 40
0
 40
0
 40
0.5
 40
1
 40
1
 40
1
 40
1
 10
-847.7326601000002
 20
520.4327107199999
 30
0
 10
-849.4098103299998
 20
518.71470408
 30
0
 10
-856.1913614
 20
511.0446676500004
 30
0
 10
-860.7464584500001
 20
500.7063145900001
 30
0
 10
-860.7464584500001
 20
492.8135538400001
 30
0
  0
LINE
  5
49C
100
AcDbEntity
  8
0
  6
CONTINUOUS
 62
    7
370
   -1
100
AcDbLine
 10
220.2113216699987
 20
-708.8818510600004
 11
220.2113216699987
 21
-693.8104928000004
  0
LINE
  5
49D
100
AcDbEntity
  8
0
  6
CONTINUOUS
 62
    7
370
   -1
100
AcDbLine
 10
225.3945048499976
 20
-800.61764255
 11
225.3945048499976
 21
-549.2315480100003
  0
LINE
  5
49E
100
AcDbEntity
  8
0
  6
CONTINUOUS
 62
    7
370
   -1
100
AcDbLine
 10
240.4658631099975
 20
-526.3136855600002
 11
240.4658631099975
 21
-567.2732043000003
  0
LINE
  5
49F
100
AcDbEntity
  8
0
  6
CONTINUOUS
 62
    7
370
   -1
100
AcDbLine
 10
240.4658631099975
 20
-836.4714693699998
 11
240.4658631099975
 21
-835.4191395599998
  0
LINE
  5
4A0
100
AcDbEntity
  8
0
  6
CONTINUOUS
 62
    7
370
   -1
100
AcDbLine
 10
245.3302521499978
 20
-512.9541936099998
 11
240.3741727699986
 21
-568.2970796699999
  0
LINE
  5
4A1
100
AcDbEntity
  8
0
  6
CONTINUOUS
 62
    7
370
   -1
100
AcDbLine
 10
243.9579342099986
 20
-794.2299730100003
 11
243.9579342099986
 21
-626.8792972100003
  0
LINE
  5
4A2
100
AcDbEntity
  8
0
  6
CONTINUOUS
 62
    7
370
   -1
100
AcDbLine
 10
245.3302521499978
 20
-512.9541936099998
 11
245.3302521499978
 21
-561.8499886700001
  0
LINE
  5
4A3
100
AcDbEntity
  8
0
  6
CONTINUOUS
 62
    7
370
   -1
100
AcDbLine
 10
270.4491825599982
 20
-512.9541936099998
 11
270.4491825599982
 21
-545.3513519700002
  0
LINE
  5
4A4
100
AcDbEntity
  8
0
  6
CONTINUOUS
 62
    7
370
   -1
100
AcDbLine
 10
275.6323657399984
 20
-529.0287523899998
 11
275.6323657399984
 21
-498.9922982500002
  0
LINE
  5
4A5
100
AcDbEntity
  8
0
  6
CONTINUOUS
 62
    7
370
   -1
100
AcDbLine
 10
275.6323657399984
 20
-851.1556784900001
 11
770.5600902199986
 21
-851.1556784900001
  0
LINE
  5
4A6
100
AcDbEntity
  8
0
  6
CONTINUOUS
 62
    7
370
   -1
100
AcDbLine
 10
270.4491825599982
 20
-512.9541936099998
 11
272.628197999998
 21
-523.3823390299999
  0
LINE
  5
4A7
100
AcDbEntity
  8
0
  6
CONTINUOUS
 62
    7
370
   -1
100
AcDbLine
 10
362.2202140799978
 20
-499.1321294100002
 11
362.2202140799978
 21
-497.8936215100001
  0
LINE
  5
4A8
100
AcDbEntity
  8
0
  6
CONTINUOUS
 62
    7
370
   -1
100
AcDbLine
 10
367.0385021699985
 20
-517.7439995400003
 11
367.0385021699985
 21
-498.99231043
  0
LINE
  5
4A9
100
AcDbEntity
  8
0
  6
CONTINUOUS
 62
    7
370
   -1
100
AcDbLine
 10
392.1842029599982
 20
-563.1574600100001
 11
392.1842029599982
 21
-512.3255770900001
  0
LINE
  5
4AA
100
AcDbEntity
  8
0
  6
CONTINUOUS
 62
    7
370
   -1
100
AcDbLine
 10
392.1842029599982
 20
-499.10050005
 11
392.1842029599982
 21
-462.2247402900002
  0
LINE
  5
4AB
100
AcDbEntity
  8
0
  6
CONTINUOUS
 62
    7
370
   -1
100
AcDbLine
 10
225.3945048499976
 20
-708.8818510600004
 11
220.2113216699987
 21
-708.8818510600004
  0
LINE
  5
4AC
100
AcDbEntity
  8
0
  6
CONTINUOUS
 62
    7
370
   -1
100
AcDbLine
 10
434.0715255699977
 20
-420.9607290399998
 11
434.0715255699977
 21
-384.3560558999999
  0
LINE
  5
4AD
100
AcDbEntity
  8
0
  6
CONTINUOUS
 62
    7
370
   -1
100
AcDbLine
 10
434.9851511499983
 20
-422.8695388099999
 11
434.9851511499983
 21
-384.3560558999999
  0
LINE
  5
4AE
100
AcDbEntity
  8
0
  6
CONTINUOUS
 62
    7
370
   -1
100
AcDbLine
 10
442.2118075799981
 20
-426.9562324
 11
442.2118075799981
 21
-384.3560709499999
  0
LINE
  5
4AF
100
AcDbEntity
  8
0
  6
CONTINUOUS
 62
    7
370
   -1
100
AcDbLine
 10
225.3945048499976
 20
-693.8104928000004
 11
220.2113216699987
 21
-693.8104928000004
  0
LINE
  5
4B0
100
AcDbEntity
  8
0
  6
CONTINUOUS
 62
    7
370
   -1
100
AcDbLine
 10
447.1303083699979
 20
-384.3560739600001
 11
447.1303083699979
 21
-429.1077886600002
  0
LINE
  5
4B1
100
AcDbEntity
  8
0
  6
CONTINUOUS
 62
    7
370
   -1
100
AcDbLine
 10
434.0715255699977
 20
-420.9607290399998
 11
434.0680348099985
 21
-420.9366987399998
  0
LWPOLYLINE
  5
4B2
100
AcDbEntity
  8
0
  6
CONTINUOUS
 62
    7
370
   -1
100
AcDbPolyline
 90
    7
 70
    0
 43
0
 10
271.8933060799988
 20
-529.1665463400003
 10
272.5156018799977
 20
-529.1244722800002
 10
273.1383780199979
 20
-529.0900392099999
 10
273.7615385299987
 20
-529.06325252
 10
274.3849874399987
 20
-529.0441162000002
 10
275.0086285699983
 20
-529.0326333300001
 10
275.6323657399984
 20
-529.0288056599999
  0
LINE
  5
4B3
100
AcDbEntity
  8
0
  6
CONTINUOUS
 62
    7
370
   -1
100
AcDbLine
 10
275.6323664399984
 20
-506.21537824
 11
367.0385021699985
 21
-506.21537824
  0
LINE
  5
4B4
100
AcDbEntity
  8
0
  6
CONTINUOUS
 62
    7
370
   -1
100
AcDbLine
 10
275.6323657399984
 20
-498.9922982500002
 11
367.0385021699985
 21
-498.9922982500002
  0
LINE
  5
4B5
100
AcDbEntity
  8
0
  6
CONTINUOUS
 62
    7
370
   -1
100
AcDbLine
 10
392.1842029599982
 20
-499.10050005
 11
367.0385021699985
 21
-499.0685655600001
  0
LINE
  5
4B6
100
AcDbEntity
  8
0
  6
CONTINUOUS
 62
    7
370
   -1
100
AcDbLine
 10
388.8106832999978
 20
-462.2247402900002
 11
401.0140495099977
 21
-462.2247402900002
  0
LINE
  5
4B7
100
AcDbEntity
  8
0
  6
CONTINUOUS
 62
    7
370
   -1
100
AcDbLine
 10
466.1072170199982
 20
-384.3560558999999
 11
434.0680332699984
 21
-384.3560562499999
  0
ARC
  5
4B8
100
AcDbEntity
  8
0
  6
CONTINUOUS
 62
    7
370
   -1
100
AcDbCircle
 10
-305.3395582400015
 20
-2169.83758548
 40
1783.67751366
100
AcDbArc
 50
66.97956895279999
 51
67.85439177089999
  0
ARC
  5
4B9
100
AcDbEntity
  8
0
  6
CONTINUOUS
 62
    7
370
   -1
100
AcDbCircle
 10
308.1578126799986
 20
-543.4249688400002
 40
69.80862664999999
100
AcDbArc
 50
177.2059829383
 51
181.6007616366
  0
ARC
  5
4BA
100
AcDbEntity
  8
0
  6
CONTINUOUS
 62
    7
370
   -1
100
AcDbCircle
 10
275.6461252899978
 20
-556.67788138
 40
50.46250419
100
AcDbArc
 50
90.0156227824
 51
97.8197066755
  0
ARC
  5
4BB
100
AcDbEntity
  8
0
  6
CONTINUOUS
 62
    7
370
   -1
100
AcDbCircle
 10
275.6323657399984
 20
-549.2315478000003
 40
50.23786089
100
AcDbArc
 50
90
 51
106.1395220149
  0
ARC
  5
4BC
100
AcDbEntity
  8
0
  6
CONTINUOUS
 62
    7
370
   -1
100
AcDbCircle
 10
275.6323657399984
 20
-549.2315478000003
 40
50.23786089
100
AcDbArc
 50
126.0141102377
 51
180.0000002528
  0
ARC
  5
4BD
100
AcDbEntity
  8
0
  6
CONTINUOUS
 62
    7
370
   -1
100
AcDbCircle
 10
275.6323657399984
 20
-800.9178177399999
 40
50.23786089
100
AcDbArc
 50
180.0000000011
 51
219.3089632449
  0
ARC
  5
4BE
100
AcDbEntity
  8
0
  6
CONTINUOUS
 62
    7
370
   -1
100
AcDbCircle
 10
270.2148173099984
 20
-561.4872887100003
 40
46.06715358
100
AcDbArc
 50
124.1066738083
 51
130.2237064356
  0
ARC
  5
4BF
100
AcDbEntity
  8
0
  6
CONTINUOUS
 62
    7
370
   -1
100
AcDbCircle
 10
257.8897173199981
 20
-512.9541936099998
 40
12.55946524
100
AcDbArc
 50
0
 51
180
  0
ARC
  5
4C0
100
AcDbEntity
  8
0
  6
CONTINUOUS
 62
    7
370
   -1
100
AcDbCircle
 10
520.2907482399986
 20
-512.31815044
 40
128.10654528
100
AcDbArc
 50
132.3188723227
 51
180
  0
ARC
  5
4C1
100
AcDbEntity
  8
0
  6
CONTINUOUS
 62
    7
370
   -1
100
AcDbCircle
 10
526.8216701899986
 20
-384.3560558999999
 40
92.75014462
100
AcDbArc
 50
0
 51
180
  0
ARC
  5
4C2
100
AcDbEntity
  8
0
  6
CONTINUOUS
 62
    7
370
   -1
100
AcDbCircle
 10
526.8216701899986
 20
-384.3560558999999
 40
91.83651904
100
AcDbArc
 50
0
 51
180
  0
ARC
  5
4C3
100
AcDbEntity
  8
0
  6
CONTINUOUS
 62
    7
370
   -1
100
AcDbCircle
 10
526.8216701899986
 20
-384.3560558999999
 40
84.60986261000001
100
AcDbArc
 50
359.9999999113
 51
180.0000102028
  0
ARC
  5
4C4
100
AcDbEntity
  8
0
  6
CONTINUOUS
 62
    7
370
   -1
100
AcDbCircle
 10
526.8216701899986
 20
-384.3560558999999
 40
79.69136182
100
AcDbArc
 50
359.9999999113
 51
180.0000129859
  0
LINE
  5
4C5
100
AcDbEntity
  8
0
  6
CONTINUOUS
 62
    7
370
   -1
100
AcDbLine
 10
236.8081925899976
 20
-832.7068697200003
 11
236.9993095999977
 21
-832.7307741599998
  0
SPLINE
  5
4C6
100
AcDbEntity
  8
0
  6
CONTINUOUS
 62
    7
370
   -1
100
AcDbSpline
210
0
220
0
230
0
 70
    8
 71
    3
 72
    9
 73
    5
 74
    0
 42
1e-07
 43
1e-07
 40
0
 40
0
 40
0
 40
0
 40
0.5
 40
1
 40
1
 40
1
 40
1
 10
240.4658631099975
 20
-569.1153037899999
 30
0
 10
240.2059733399984
 20
-566.7246676400001
 30
0
 10
239.3548115599982
 20
-558.8281576900001
 30
0
 10
238.5287213999984
 20
-550.9129141999999
 30
0
 10
238.3764292599976
 20
-545.3750676900003
 30
0
  0
SPLINE
  5
4C7
100
AcDbEntity
  8
0
  6
CONTINUOUS
 62
    7
370
   -1
100
AcDbSpline
210
0
220
0
230
0
 70
    8
 71
    3
 72
    8
 73
    4
 74
    0
 42
1e-07
 43
1e-07
 40
0
 40
0
 40
0
 40
0
 40
1
 40
1
 40
1
 40
1
 10
271.8933079699976
 20
-529.1663903799999
 30
0
 10
271.7702018399982
 20
-534.56369621
 30
0
 10
271.2209158999981
 20
-539.94761356
 30
0
 10
270.6085796299976
 20
-545.3114843099997
 30
0
  0
SPLINE
  5
4C8
100
AcDbEntity
  8
0
  6
CONTINUOUS
 62
    7
370
   -1
100
AcDbSpline
210
0
220
0
230
0
 70
    8
 71
    3
 72
    9
 73
    5
 74
    0
 42
1e-07
 43
1e-07
 40
0
 40
0
 40
0
 40
0
 40
0.5
 40
1
 40
1
 40
1
 40
1
 10
240.4658631099975
 20
-836.4714693699998
 30
0
 10
239.8091383699987
 20
-835.9014425700003
 30
0
 10
238.6845789199983
 20
-834.8713496599999
 30
0
 10
237.6224577899976
 20
-833.77384794
 30
0
 10
237.2006048199982
 20
-833.2727652599999
 30
0
  0
SPLINE
  5
4C9
100
AcDbEntity
  8
0
  6
CONTINUOUS
 62
    7
370
   -1
100
AcDbSpline
210
0
220
0
230
0
 70
    8
 71
    3
 72
    9
 73
    5
 74
    0
 42
1e-07
 43
1e-07
 40
0
 40
0
 40
0
 40
0
 40
0.5
 40
1
 40
1
 40
1
 40
1
 10
236.9993095999977
 20
-832.7307741599998
 30
0
 10
237.1662895599977
 20
-832.8110288100002
 30
0
 10
239.3056644899979
 20
-831.8637955300003
 30
0
 10
239.7880815999985
 20
-829.6724697500003
 30
0
 10
240.4658631099975
 20
-827.9703072600003
 30
0
  0
SPLINE
  5
4CA
100
AcDbEntity
  8
0
  6
CONTINUOUS
 62
    7
370
   -1
100
AcDbSpline
210
0
220
0
230
0
 70
    8
 71
    3
 72
    9
 73
    5
 74
    0
 42
1e-07
 43
1e-07
 40
0
 40
0
 40
0
 40
0
 40
0.5
 40
1
 40
1
 40
1
 40
1
 10
270.6085796299976
 20
-848.0775324400003
 30
0
 10
271.0895881299985
 20
-848.7419433200004
 30
0
 10
271.9076389999984
 20
-849.7111184500002
 30
0
 10
272.8863083699979
 20
-850.5005594099998
 30
0
 10
273.2071558199985
 20
-850.7950660000001
 30
0
  0
LINE
  5
4CB
100
AcDbEntity
  8
0
  6
CONTINUOUS
 62
    7
370
   -1
100
AcDbLine
 10
388.8106832999978
 20
-462.2247402900002
 11
363.413767069998
 21
-496.2915927600001
  0
LINE
  5
4CC
100
AcDbEntity
  8
0
  6
CONTINUOUS
 62
    7
370
   -1
100
AcDbLine
 10
363.413767069998
 20
-496.2915927600001
 11
362.2202140799978
 21
-497.8936215100001
  0
SPLINE
  5
4CD
100
AcDbEntity
  8
0
  6
CONTINUOUS
 62
    7
370
   -1
100
AcDbSpline
210
0
220
0
230
0
 70
    8
 71
    3
 72
    9
 73
    5
 74
    0
 42
1e-07
 43
1e-07
 40
0
 40
0
 40
0
 40
0
 40
0.5
 40
1
 40
1
 40
1
 40
1
 10
240.4658631099975
 20
-827.9703072600003
 30
0
 10
245.386580449998
 20
-835.4503902900003
 30
0
 10
255.5233875499982
 20
-843.9555485599999
 30
0
 10
267.345979729998
 20
-847.4618889500002
 30
0
 10
270.6085796299976
 20
-848.0775324400003
 30
0
  0
SPLINE
  5
4CE
100
AcDbEntity
  8
0
  6
CONTINUOUS
 62
    7
370
   -1
100
AcDbSpline
210
0
220
0
230
0
 70
    8
 71
    3
 72
    9
 73
    5
 74
    0
 42
1e-07
 43
1e-07
 40
0
 40
0
 40
0
 40
0
 40
0.5
 40
1
 40
1
 40
1
 40
1
 10
270.6085796299976
 20
-545.3114843099997
 30
0
 10
267.0707340599979
 20
-546.0392661200002
 30
0
 10
254.6295284999978
 20
-550.54115918
 30
0
 10
245.0881070299984
 20
-560.8748936399999
 30
0
 10
240.4658631099975
 20
-569.1153037899999
 30
0
  0
SPLINE
  5
4CF
100
AcDbEntity
  8
0
  6
CONTINUOUS
 62
    7
370
   -1
100
AcDbSpline
210
0
220
0
230
0
 70
    8
 71
    3
 72
    9
 73
    5
 74
    0
 42
1e-07
 43
1e-07
 40
0
 40
0
 40
0
 40
0
 40
0.5
 40
1
 40
1
 40
1
 40
1
 10
368.3679966999985
 20
-767.8260441299998
 30
0
 10
342.6660826999977
 20
-742.2600087400002
 30
0
 10
298.3669892599986
 20
-697.91549258
 30
0
 10
257.9686141099979
 20
-649.3752812100001
 30
0
 10
243.9579342099986
 20
-626.8792972100003
 30
0
  0
SPLINE
  5
4D0
100
AcDbEntity
  8
0
  6
CONTINUOUS
 62
    7
370
   -1
100
AcDbSpline
210
0
220
0
230
0
 70
    8
 71
    3
 72
    9
 73
    5
 74
    0
 42
1e-07
 43
1e-07
 40
0
 40
0
 40
0
 40
0
 40
0.5
 40
1
 40
1
 40
1
 40
1
 10
243.9579342099986
 20
-626.8792972100003
 30
0
 10
241.0915695199977
 20
-622.2842674
 30
0
 10
232.5804762999983
 20
-607.3932626699998
 30
0
 10
225.3945681299978
 20
-590.57932637
 30
0
 10
225.3945048499976
 20
-578.69143385
 30
0
  0
SPLINE
  5
4D1
100
AcDbEntity
  8
0
  6
CONTINUOUS
 62
    7
370
   -1
100
AcDbSpline
210
0
220
0
230
0
 70
    8
 71
    3
 72
   11
 73
    7
 74
    0
 42
1e-07
 43
1e-07
 40
0
 40
0
 40
0
 40
0
 40
0.25
 40
0.5
 40
0.75
 40
1
 40
1
 40
1
 40
1
 10
243.9579342099986
 20
-794.2299730100003
 30
0
 10
241.245132509998
 20
-794.9793486299999
 30
0
 10
236.7003349099977
 20
-796.3443325300003
 30
0
 10
230.5326320399976
 20
-798.1147356400002
 30
0
 10
227.6531808499982
 20
-799.57530734
 30
0
 10
225.3945343199988
 20
-800.1492135400003
 30
0
 10
225.3945048499976
 20
-800.61764255
 30
0
  0
SPLINE
  5
4D2
100
AcDbEntity
  8
0
  6
CONTINUOUS
 62
    7
370
   -1
100
AcDbSpline
210
0
220
0
230
0
 70
    8
 71
    3
 72
    8
 73
    4
 74
    0
 42
1e-07
 43
1e-07
 40
0
 40
0
 40
0
 40
0
 40
1
 40
1
 40
1
 40
1
 10
457.4560738199987
 20
-433.8399109500003
 30
0
 10
453.9465545199976
 20
-432.4192741100002
 30
0
 10
450.4325410799977
 20
-430.9598669300004
 30
0
 10
447.1303083699979
 20
-429.1077886600002
 30
0
  0
SPLINE
  5
4D3
100
AcDbEntity
  8
0
  6
CONTINUOUS
 62
    7
370
   -1
100
AcDbSpline
210
0
220
0
230
0
 70
    8
 71
    3
 72
    9
 73
    5
 74
    0
 42
1e-07
 43
1e-07
 40
0
 40
0
 40
0
 40
0
 40
0.5
 40
1
 40
1
 40
1
 40
1
 10
442.2118075799981
 20
-426.9562324
 30
0
 10
441.3405569899983
 20
-426.6842954900001
 30
0
 10
438.7554187699988
 20
-425.7914009
 30
0
 10
435.9655539999983
 20
-424.4692968299998
 30
0
 10
434.9851511499983
 20
-422.8695388099999
 30
0
  0
SPLINE
  5
4D4
100
AcDbEntity
  8
0
  6
CONTINUOUS
 62
    7
370
   -1
100
AcDbSpline
210
0
220
0
230
0
 70
    8
 71
    3
 72
    8
 73
    4
 74
    0
 42
1e-07
 43
1e-07
 40
0
 40
0
 40
0
 40
0
 40
1
 40
1
 40
1
 40
1
 10
447.1303083699979
 20
-429.1077886600002
 30
0
 10
445.569527539998
 20
-428.2324148599999
 30
0
 10
443.9200345199982
 20
-427.4894084000001
 30
0
 10
442.2118075799981
 20
-426.9562324
 30
0
  0
SPLINE
  5
4D5
100
AcDbEntity
  8
0
  6
CONTINUOUS
 62
    7
370
   -1
100
AcDbSpline
210
0
220
0
230
0
 70
    8
 71
    3
 72
    9
 73
    5
 74
    0
 42
1e-07
 43
1e-07
 40
0
 40
0
 40
0
 40
0
 40
0.5
 40
1
 40
1
 40
1
 40
1
 10
488.4402393399985
 20
-799.2632239600002
 30
0
 10
464.0098729599978
 20
-796.2954060300002
 30
0
 10
423.5914928599981
 20
-786.2694853
 30
0
 10
384.0933780499976
 20
-773.7791851700002
 30
0
 10
368.3682256699987
 20
-767.8260441299998
 30
0
  0
SPLINE
  5
4D6
100
AcDbEntity
  8
0
  6
CONTINUOUS
 62
    7
370
   -1
100
AcDbSpline
210
0
220
0
230
0
 70
    8
 71
    3
 72
    9
 73
    5
 74
    0
 42
1e-07
 43
1e-07
 40
0
 40
0
 40
0
 40
0
 40
0.5
 40
1
 40
1
 40
1
 40
1
 10
243.9579377799977
 20
-626.8792972100003
 30
0
 10
244.4313593999976
 20
-614.5394260300002
 30
0
 10
255.7655380599981
 20
-589.3369712
 30
0
 10
281.1039190999978
 20
-578.6601516199999
 30
0
 10
293.6101979899979
 20
-578.1989453500004
 30
0
  0
SPLINE
  5
4D7
100
AcDbEntity
  8
0
  6
CONTINUOUS
 62
    7
370
   -1
100
AcDbSpline
210
0
220
0
230
0
 70
    8
 71
    3
 72
    8
 73
    4
 74
    0
 42
1e-07
 43
1e-07
 40
0
 40
0
 40
0
 40
0
 40
1
 40
1
 40
1
 40
1
 10
244.9697522899978
 20
-516.6229331599999
 30
0
 10
233.2773346299979
 20
-525.6005105100003
 30
0
 10
225.3945042899988
 20
-541.537474
 30
0
 10
225.3945043599988
 20
-556.2788960800002
 30
0
  0
SPLINE
  5
4D8
100
AcDbEntity
  8
0
  6
CONTINUOUS
 62
    7
370
   -1
100
AcDbSpline
210
0
220
0
230
0
 70
    8
 71
    3
 72
    9
 73
    5
 74
    0
 42
1e-07
 43
1e-07
 40
0
 40
0
 40
0
 40
0
 40
0.5
 40
1
 40
1
 40
1
 40
1
 10
488.4402393399985
 20
-799.26322151
 30
0
 10
447.876014939998
 20
-757.2911517200002
 30
0
 10
379.6863746799984
 20
-686.94118693
 30
0
 10
313.9968752799986
 20
-612.5597001700003
 30
0
 10
293.6101979899979
 20
-578.1989429700002
 30
0
  0
SPLINE
  5
4D9
100
AcDbEntity
  8
0
  6
CONTINUOUS
 62
    7
370
   -1
100
AcDbSpline
210
0
220
0
230
0
 70
    8
 71
    3
 72
    8
 73
    4
 74
    0
 42
1e-07
 43
1e-07
 40
0
 40
0
 40
0
 40
0
 40
1
 40
1
 40
1
 40
1
 10
225.3945146499984
 20
-578.69143385
 30
0
 10
225.394525849998
 20
-566.7727060500001
 30
0
 10
230.3301916199981
 20
-554.16799869
 30
0
 10
238.3764296799976
 20
-545.3751535099999
 30
0
  0
LINE
  5
4DA
100
AcDbEntity
  8
0
  6
CONTINUOUS
 62
    7
370
   -1
100
AcDbLine
 10
434.9851511499983
 20
-422.8695388099999
 11
434.0715255699977
 21
-420.9607290399998
  0
SPLINE
  5
4DB
100
AcDbEntity
  8
0
  6
CONTINUOUS
 62
    7
370
   -1
100
AcDbSpline
210
0
220
0
230
0
 70
    8
 71
    3
 72
    9
 73
    5
 74
    0
 42
1e-07
 43
1e-07
 40
0
 40
0
 40
0
 40
0
 40
0.5
 40
1
 40
1
 40
1
 40
1
 10
293.6101979899979
 20
-578.1989429700002
 30
0
 10
290.8247897699982
 20
-573.5039668099998
 30
0
 10
282.517697129998
 20
-558.2150934200001
 30
0
 10
275.6324848099983
 20
-541.1065770300002
 30
0
 10
275.6323657399984
 20
-529.0287523899998
 30
0
  0
SPLINE
  5
4DC
100
AcDbEntity
  8
0
  6
CONTINUOUS
 62
    7
370
   -1
100
AcDbSpline
210
0
220
0
230
0
 70
    8
 71
    3
 72
   11
 73
    7
 74
    0
 42
1e-07
 43
1e-07
 40
0
 40
0
 40
0
 40
0
 40
0.25
 40
0.5
 40
0.75
 40
1
 40
1
 40
1
 40
1
 10
293.6101979899979
 20
-844.4194275699998
 30
0
 10
290.9797569599978
 20
-845.1742454100001
 30
0
 10
286.571469089998
 20
-846.5451256899998
 30
0
 10
280.6065700099977
 20
-848.3415869300002
 30
0
 10
277.802632579998
 20
-849.7915602799998
 30
0
 10
275.6323359899984
 20
-850.3946299500002
 30
0
 10
275.6323657399984
 20
-850.8536202299998
 30
0
  0
SPLINE
  5
4DD
100
AcDbEntity
  8
0
  6
CONTINUOUS
 62
    7
370
   -1
100
AcDbSpline
210
0
220
0
230
0
 70
    8
 71
    3
 72
    9
 73
    5
 74
    0
 42
1e-07
 43
1e-07
 40
0
 40
0
 40
0
 40
0
 40
0.5
 40
1
 40
1
 40
1
 40
1
 10
500.0036145199977
 20
-800.0000034300002
 30
0
 10
456.6701917299982
 20
-809.3325943899999
 30
0
 10
387.685153859998
 20
-823.0569072300003
 30
0
 10
318.6507194399978
 20
-837.2342844299999
 30
0
 10
293.6101979899979
 20
-844.4194275699998
 30
0
  0
SPLINE
  5
4DE
100
AcDbEntity
  8
0
  6
CONTINUOUS
 62
    7
370
   -1
100
AcDbSpline
210
0
220
0
230
0
 70
    8
 71
    3
 72
    8
 73
    4
 74
    0
 42
1e-07
 43
1e-07
 40
0
 40
0
 40
0
 40
0
 40
1
 40
1
 40
1
 40
1
 10
236.999312469998
 20
-832.7307649900004
 30
0
 10
229.7233378199986
 20
-823.9782039700003
 30
0
 10
225.3945047099976
 20
-811.9995199099998
 30
0
 10
225.3945048499976
 20
-800.61764255
 30
0
  0
SPLINE
  5
4DF
100
AcDbEntity
  8
0
  6
CONTINUOUS
 62
    7
370
   -1
100
AcDbSpline
210
0
220
0
230
0
 70
    8
 71
    3
 72
   11
 73
    7
 74
    0
 42
1e-07
 43
1e-07
 40
0
 40
0
 40
0
 40
0
 40
0.25
 40
0.5
 40
0.75
 40
1
 40
1
 40
1
 40
1
 10
520.2907482399986
 20
-655.8254906399999
 30
0
 10
494.3571153399981
 20
-655.8254906399999
 30
0
 10
452.8050486299977
 20
-647.6031421000004
 30
0
 10
410.3980372699987
 20
-617.7268481700004
 30
0
 10
394.1377482599979
 20
-588.6755459600001
 30
0
 10
392.1842068099985
 20
-570.9190842300002
 30
0
 10
392.1842029599982
 20
-563.1574684100002
 30
0
  0
SPLINE
  5
4E0
100
AcDbEntity
  8
0
  6
CONTINUOUS
 62
    7
370
   -1
100
AcDbSpline
210
0
220
0
230
0
 70
    8
 71
    3
 72
    9
 73
    5
 74
    0
 42
1e-07
 43
1e-07
 40
0
 40
0
 40
0
 40
0
 40
0.5
 40
1
 40
1
 40
1
 40
1
 10
293.6101979899979
 20
-844.4194851100002
 30
0
 10
280.9437918599978
 20
-844.3339346100001
 30
0
 10
254.6056851699984
 20
-833.3955122900002
 30
0
 10
244.0422895299987
 20
-806.9923435399999
 30
0
 10
243.9579432399981
 20
-794.2299730100003
 30
0
  0
SPLINE
  5
4E1
100
AcDbEntity
  8
0
  6
CONTINUOUS
 62
    7
370
   -1
100
AcDbSpline
210
0
220
0
230
0
 70
    8
 71
    3
 72
    8
 73
    4
 74
    0
 42
1e-07
 43
1e-07
 40
0
 40
0
 40
0
 40
0
 40
1
 40
1
 40
1
 40
1
 10
238.4321722199978
 20
-540.0221143499999
 30
0
 10
238.6595271099984
 20
-535.4082258400003
 30
0
 10
239.3828473999977
 20
-530.8044243300003
 30
0
 10
240.4658631099975
 20
-526.3136855600002
 30
0
  0
SPLINE
  5
4E2
100
AcDbEntity
  8
0
  6
CONTINUOUS
 62
    7
370
   -1
100
AcDbSpline
210
0
220
0
230
0
 70
    8
 71
    3
 72
    9
 73
    5
 74
    0
 42
1e-07
 43
1e-07
 40
0
 40
0
 40
0
 40
0
 40
0.5
 40
1
 40
1
 40
1
 40
1
 10
368.3679966999985
 20
-767.8260441299998
 30
0
 10
354.5388881199979
 20
-770.51067755
 30
0
 10
312.9136766599985
 20
-778.4909107200001
 30
0
 10
271.2428366099977
 20
-786.6808008899999
 30
0
 10
243.9579342099986
 20
-794.2299730100003
 30
0
  0
ELLIPSE
  5
4E3
100
AcDbEntity
  8
0
  6
CONTINUOUS
 62
    7
370
   -1
100
AcDbEllipse
 10
526.8216701899986
 20
-502.9174076200003
 30
0
 11
133.9504369
 21
0
 31
0
 40
0.8851135872
 41
8.6188796923
 42
9.3858947412
  0
LINE
  5
4E4
100
AcDbEntity
  8
0
  6
CONTINUOUS
 62
    7
370
   -1
100
AcDbLine
 10
772.9836962299992
 20
-848.9061636700003
 11
774.0999100699992
 21
-848.9069168000003
  0
LINE
  5
4E5
100
AcDbEntity
  8
0
  6
CONTINUOUS
 62
    7
370
   -1
100
AcDbLine
 10
553.6363742599988
 20
-799.9999995799999
 11
500
 21
-800
  0
LINE
  5
4E6
100
AcDbEntity
  8
0
  6
CONTINUOUS
 62
    7
370
   -1
100
AcDbLine
 10
828.5883247499987
 20
-708.8818510600004
 11
837.1287611299988
 21
-708.8818510600004
  0
LINE
  5
4E7
100
AcDbEntity
  8
0
  6
CONTINUOUS
 62
    7
370
   -1
100
AcDbLine
 10
828.5883247499987
 20
-693.8104928000005
 11
837.1287611299988
 21
-693.8104928000005
  0
LINE
  5
4E8
100
AcDbEntity
  8
0
  6
CONTINUOUS
 62
    7
370
   -1
100
AcDbLine
 10
457.45258152
 20
-384.3560558999999
 11
457.45258152
 21
-433.8399109500003
  0
LINE
  5
4E9
100
AcDbEntity
  8
0
  6
CONTINUOUS
 62
    7
370
   -1
100
AcDbLine
 10
469.1497045799999
 20
-401.9253652800001
 11
469.1497045799999
 21
-440.2899108000001
  0
LINE
  5
4EA
100
AcDbEntity
  8
0
  6
CONTINUOUS
 62
    7
370
   -1
100
AcDbLine
 10
520.2872559399998
 20
-655.8255080000001
 11
533.3490997699996
 21
-655.8255117799997
  0
LINE
  5
4EB
100
AcDbEntity
  8
0
  6
CONTINUOUS
 62
    7
370
   -1
100
AcDbLine
 10
520.2872559399998
 20
-655.8255200399999
 11
520.2872559399998
 21
-384.21160509
  0
LINE
  5
4EC
100
AcDbEntity
  8
0
  6
CONTINUOUS
 62
    7
370
   -1
100
AcDbLine
 10
533.3490997699996
 20
-384.21160509
 11
533.3490997699996
 21
-655.8255393600002
  0
LINE
  5
4ED
100
AcDbEntity
  8
0
  6
CONTINUOUS
 62
    7
370
   -1
100
AcDbLine
 10
584.4866511299997
 20
-440.2898893800002
 11
584.4866511299997
 21
-401.9253652800001
  0
LINE
  5
4EE
100
AcDbEntity
  8
0
  6
CONTINUOUS
 62
    7
370
   -1
100
AcDbLine
 10
775.5072559399994
 20
-544.5469156800002
 11
772.9836962299992
 21
-544.5469085400002
  0
LINE
  5
4EF
100
AcDbEntity
  8
0
  6
CONTINUOUS
 62
    7
370
   -1
100
AcDbLine
 10
596.1837742599996
 20
-433.83992915
 11
596.1837742599996
 21
-384.3560558999999
  0
LINE
  5
4F0
100
AcDbEntity
  8
0
  6
CONTINUOUS
 62
    7
370
   -1
100
AcDbLine
 10
606.5095397099992
 20
-429.1077971300003
 11
606.5095397099992
 21
-384.3560560399999
  0
LINE
  5
4F1
100
AcDbEntity
  8
0
  6
CONTINUOUS
 62
    7
370
   -1
100
AcDbLine
 10
611.428040499999
 20
-384.3560560399999
 11
611.428040499999
 21
-426.9562408700001
  0
LINE
  5
4F2
100
AcDbEntity
  8
0
  6
CONTINUOUS
 62
    7
370
   -1
100
AcDbLine
 10
618.6546969299989
 20
-384.3560558999999
 11
618.6546969299989
 21
-422.8696016000001
  0
LINE
  5
4F3
100
AcDbEntity
  8
0
  6
CONTINUOUS
 62
    7
370
   -1
100
AcDbLine
 10
619.5718131999997
 20
-420.93668537
 11
619.5683225099997
 21
-420.9607131500003
  0
LINE
  5
4F4
100
AcDbEntity
  8
0
  6
CONTINUOUS
 62
    7
370
   -1
100
AcDbLine
 10
772.9836962299992
 20
-514.2706562400001
 11
778.0074823399987
 21
-514.2707128699999
  0
LINE
  5
4F5
100
AcDbEntity
  8
0
  6
CONTINUOUS
 62
    7
370
   -1
100
AcDbLine
 10
686.5745755299995
 20
-506.21537824
 11
778.0074821999988
 21
-506.21537824
  0
LINE
  5
4F6
100
AcDbEntity
  8
0
  6
CONTINUOUS
 62
    7
370
   -1
100
AcDbLine
 10
619.5683225099997
 20
-384.3560558999999
 11
619.5683225099997
 21
-420.9607131500003
  0
LINE
  5
4F7
100
AcDbEntity
  8
0
  6
CONTINUOUS
 62
    7
370
   -1
100
AcDbLine
 10
686.5745755299995
 20
-499.0685655600001
 11
661.455645049999
 21
-499.1004718400002
  0
LINE
  5
4F8
100
AcDbEntity
  8
0
  6
CONTINUOUS
 62
    7
370
   -1
100
AcDbLine
 10
686.5745755299995
 20
-498.9922982500002
 11
778.0074823399987
 21
-498.9922982500002
  0
LINE
  5
4F9
100
AcDbEntity
  8
0
  6
CONTINUOUS
 62
    7
370
   -1
100
AcDbLine
 10
661.455645049999
 20
-512.3181554800003
 11
661.455645049999
 21
-563.1574685500002
  0
LINE
  5
4FA
100
AcDbEntity
  8
0
  6
CONTINUOUS
 62
    7
370
   -1
100
AcDbLine
 10
661.455645049999
 20
-499.1004718400002
 11
661.455645049999
 21
-462.2247402900002
  0
LINE
  5
4FB
100
AcDbEntity
  8
0
  6
CONTINUOUS
 62
    7
370
   -1
100
AcDbLine
 10
652.6257984999995
 20
-462.2247402900002
 11
664.4852892899996
 21
-462.2247402900002
  0
LINE
  5
4FC
100
AcDbEntity
  8
0
  6
CONTINUOUS
 62
    7
370
   -1
100
AcDbLine
 10
686.5745755299995
 20
-517.7439995400003
 11
686.5745755299995
 21
-498.99231043
  0
LINE
  5
4FD
100
AcDbEntity
  8
0
  6
CONTINUOUS
 62
    7
370
   -1
100
AcDbLine
 10
688.3858155899991
 20
-499.13535802
 11
688.3858155899991
 21
-497.8936215100001
  0
LINE
  5
4FE
100
AcDbEntity
  8
0
  6
CONTINUOUS
 62
    7
370
   -1
100
AcDbLine
 10
688.3858155899991
 20
-497.8936215100001
 11
664.4852892899996
 21
-462.2247402900002
  0
LINE
  5
4FF
100
AcDbEntity
  8
0
  6
CONTINUOUS
 62
    7
370
   -1
100
AcDbLine
 10
770.2675189899992
 20
-851.0554853200001
 11
778.3504638599993
 21
-889.7381502500002
  0
LINE
  5
500
100
AcDbEntity
  8
0
  6
CONTINUOUS
 62
    7
370
   -1
100
AcDbLine
 10
778.3504638599993
 20
-512.9541936099998
 11
772.5437447599995
 21
-540.7434921400002
  0
LINE
  5
501
100
AcDbEntity
  8
0
  6
CONTINUOUS
 62
    7
370
   -1
100
AcDbLine
 10
526.8181778899998
 20
-384.3560558999999
 11
520.2933866099997
 21
-384.4967953799998
  0
LINE
  5
502
100
AcDbEntity
  8
0
  6
CONTINUOUS
 62
    7
370
   -1
100
AcDbLine
 10
587.5326192299995
 20
-384.3560558999999
 11
619.5718148099986
 21
-384.3560558999999
  0
LINE
  5
503
100
AcDbEntity
  8
0
  6
CONTINUOUS
 62
    7
370
   -1
100
AcDbLine
 10
533.3490997699996
 20
-384.21160509
 11
520.2872559399998
 21
-384.21160509
  0
LINE
  5
504
100
AcDbEntity
  8
0
  6
CONTINUOUS
 62
    7
370
   -1
100
AcDbLine
 10
772.9836962299992
 20
-514.2706562400001
 11
772.9836962299992
 21
-538.6380100900003
  0
LINE
  5
505
100
AcDbEntity
  8
0
  6
CONTINUOUS
 62
    7
370
   -1
100
AcDbLine
 10
778.0074823399987
 20
-514.2706430800004
 11
778.0074823399987
 21
-498.9922982500002
  0
LINE
  5
506
100
AcDbEntity
  8
0
  6
CONTINUOUS
 62
    7
370
   -1
100
AcDbLine
 10
778.3504638599993
 20
-512.9541936099998
 11
778.3504638599993
 21
-544.6618167600004
  0
LINE
  5
507
100
AcDbEntity
  8
0
  6
CONTINUOUS
 62
    7
370
   -1
100
AcDbLine
 10
803.4693943399998
 20
-512.9541936099998
 11
805.0972930599996
 21
-531.1323963099999
  0
LINE
  5
508
100
AcDbEntity
  8
0
  6
CONTINUOUS
 62
    7
370
   -1
100
AcDbLine
 10
803.4693943399998
 20
-512.9541936099998
 11
803.4693943399998
 21
-553.08709355
  0
LINE
  5
509
100
AcDbEntity
  8
0
  6
CONTINUOUS
 62
    7
370
   -1
100
AcDbLine
 10
809.6819137999998
 20
-626.8792972100003
 11
809.6819137999998
 21
-794.2299730100003
  0
LINE
  5
50A
100
AcDbEntity
  8
0
  6
CONTINUOUS
 62
    7
370
   -1
100
AcDbLine
 10
812.0098306499997
 20
-837.8818846000004
 11
812.0098306499997
 21
-889.7381502500002
  0
LINE
  5
50B
100
AcDbEntity
  8
0
  6
CONTINUOUS
 62
    7
370
   -1
100
AcDbLine
 10
828.2453432299997
 20
-800.61764255
 11
828.2453432299997
 21
-549.23016922
  0
LINE
  5
50C
100
AcDbEntity
  8
0
  6
CONTINUOUS
 62
    7
370
   -1
100
AcDbLine
 10
828.5883247499987
 20
-693.8104928000005
 11
828.5883247499987
 21
-708.8818510600004
  0
LINE
  5
50D
100
AcDbEntity
  8
0
  6
CONTINUOUS
 62
    7
370
   -1
100
AcDbLine
 10
837.1287611299988
 20
-693.8104928000005
 11
837.1287611299988
 21
-708.8818510600004
  0
LINE
  5
50E
100
AcDbEntity
  8
0
  6
CONTINUOUS
 62
    7
370
   -1
100
AcDbLine
 10
812.0098306499997
 20
-889.7381502500002
 11
817.1503340599998
 21
-832.3358626500001
  0
ARC
  5
50F
100
AcDbEntity
  8
0
  6
CONTINUOUS
 62
    7
370
   -1
100
AcDbCircle
 10
778.0074823399987
 20
-800.91781767
 40
50.23786089
100
AcDbArc
 50
306.3850057118
 51
359.999999999
  0
ARC
  5
510
100
AcDbEntity
  8
0
  6
CONTINUOUS
 62
    7
370
   -1
100
AcDbCircle
 10
533.3490997699996
 20
-512.3181500899999
 40
128.10654528
100
AcDbArc
 50
0
 51
47.6811282624
  0
ARC
  5
511
100
AcDbEntity
  8
0
  6
CONTINUOUS
 62
    7
370
   -1
100
AcDbCircle
 10
533.3490997699996
 20
-512.3181500899999
 40
128.10654528
100
AcDbArc
 50
65.64093598389999
 51
90
  0
ARC
  5
512
100
AcDbEntity
  8
0
  6
CONTINUOUS
 62
    7
370
   -1
100
AcDbCircle
 10
520.2872559399998
 20
-512.31815044
 40
128.10654528
100
AcDbArc
 50
90
 51
114.3052888241
  0
ARC
  5
513
100
AcDbEntity
  8
0
  6
CONTINUOUS
 62
    7
370
   -1
100
AcDbCircle
 10
520.9679178799997
 20
-549.7659759600001
 40
121.1203371
100
AcDbArc
 50
104.5372216665
 51
115.3295584508
  0
ARC
  5
514
100
AcDbEntity
  8
0
  6
CONTINUOUS
 62
    7
370
   -1
100
AcDbCircle
 10
532.6686173799999
 20
-549.76480941
 40
121.11922536
100
AcDbArc
 50
64.6702865148
 51
75.4626985
  0
ARC
  5
515
100
AcDbEntity
  8
0
  6
CONTINUOUS
 62
    7
370
   -1
100
AcDbCircle
 10
526.8181778899998
 20
-384.3560558999999
 40
69.36559636999999
100
AcDbArc
 50
0
 51
180
  0
ARC
  5
516
100
AcDbEntity
  8
0
  6
CONTINUOUS
 62
    7
370
   -1
100
AcDbCircle
 10
526.8181735499993
 20
-384.3560528200003
 40
60.71444806
100
AcDbArc
 50
359.9999970663
 51
180.0000029337
  0
ARC
  5
517
100
AcDbEntity
  8
0
  6
CONTINUOUS
 62
    7
370
   -1
100
AcDbCircle
 10
526.8181778899998
 20
-384.3560558999999
 40
60.28543303999999
100
AcDbArc
 50
191.2244058902
 51
233.0334765218
  0
ARC
  5
518
100
AcDbEntity
  8
0
  6
CONTINUOUS
 62
    7
370
   -1
100
AcDbCircle
 10
526.8181778899998
 20
-384.3560558999999
 40
60.28543303999999
100
AcDbArc
 50
306.9665992736
 51
348.7757461791
  0
ARC
  5
519
100
AcDbEntity
  8
0
  6
CONTINUOUS
 62
    7
370
   -1
100
AcDbCircle
 10
778.0496022499997
 20
-556.4917109200001
 40
50.27041655999999
100
AcDbArc
 50
55.0850884083
 51
59.5901404076
  0
ARC
  5
51A
100
AcDbEntity
  8
0
  6
CONTINUOUS
 62
    7
370
   -1
100
AcDbCircle
 10
778.0074823399987
 20
-549.2315478000003
 40
50.23786089
100
AcDbArc
 50
76.3505386237
 51
90
  0
ARC
  5
51B
100
AcDbEntity
  8
0
  6
CONTINUOUS
 62
    7
370
   -1
100
AcDbCircle
 10
778.0074823399987
 20
-549.2315478000003
 40
50.23786089
100
AcDbArc
 50
359.9999997472
 51
64.53092586779999
  0
ARC
  5
51C
100
AcDbEntity
  8
0
  6
CONTINUOUS
 62
    7
370
   -1
100
AcDbCircle
 10
778.005681939999
 20
-556.3038605999998
 40
50.08848215
100
AcDbArc
 50
87.4254267038
 51
89.99794052359999
  0
ARC
  5
51D
100
AcDbEntity
  8
0
  6
CONTINUOUS
 62
    7
370
   -1
100
AcDbCircle
 10
799.4503654799996
 20
-889.7381502500002
 40
12.55946524
100
AcDbArc
 50
250.0808994241
 51
360
  0
ARC
  5
51E
100
AcDbEntity
  8
0
  6
CONTINUOUS
 62
    7
370
   -1
100
AcDbCircle
 10
1049.21616806
 20
-510.5517121999999
 40
278.31645996
100
AcDbArc
 50
186.5318480846
 51
187.0159610361
  0
ARC
  5
51F
100
AcDbEntity
  8
0
  6
CONTINUOUS
 62
    7
370
   -1
100
AcDbCircle
 10
799.4503654799996
 20
-512.9541936099998
 40
12.55946524
100
AcDbArc
 50
3.2860844795
 51
109.9191005759
  0
ARC
  5
520
100
AcDbEntity
  8
0
  6
CONTINUOUS
 62
    7
370
   -1
100
AcDbCircle
 10
790.9099290999993
 20
-512.9541936099998
 40
12.55946524
100
AcDbArc
 50
0
 51
180
  0
LINE
  5
521
100
AcDbEntity
  8
0
  6
CONTINUOUS
 62
    7
370
   -1
100
AcDbLine
 10
686.5745755299995
 20
-517.7439995400003
 11
661.455645049999
 21
-528.19105266
  0
SPLINE
  5
522
100
AcDbEntity
  8
0
  6
CONTINUOUS
 62
    7
370
   -1
100
AcDbSpline
210
0
220
0
230
0
 70
    8
 71
    3
 72
    9
 73
    5
 74
    0
 42
1e-07
 43
1e-07
 40
0
 40
0
 40
0
 40
0
 40
0.5
 40
1
 40
1
 40
1
 40
1
 10
772.7063221399994
 20
-542.2117338799999
 30
0
 10
772.5061203899986
 20
-540.4610695099999
 30
0
 10
771.8596990199994
 20
-534.2217392100004
 30
0
 10
771.5463456999996
 20
-527.9264677800003
 30
0
 10
771.7671190499989
 20
-523.4183916899999
 30
0
  0
SPLINE
  5
523
100
AcDbEntity
  8
0
  6
CONTINUOUS
 62
    7
370
   -1
100
AcDbSpline
210
0
220
0
230
0
 70
    8
 71
    3
 72
    9
 73
    5
 74
    0
 42
1e-07
 43
1e-07
 40
0
 40
0
 40
0
 40
0
 40
0.5
 40
1
 40
1
 40
1
 40
1
 10
770.2293358099994
 20
-851.0618847200001
 30
0
 10
770.2124766599995
 20
-850.7222182600003
 30
0
 10
771.6842649499999
 20
-850.1968098100001
 30
0
 10
772.3369244399994
 20
-849.42054201
 30
0
 10
772.9836962299992
 20
-848.9061636700003
 30
0
  0
SPLINE
  5
524
100
AcDbEntity
  8
0
  6
CONTINUOUS
 62
    7
370
   -1
100
AcDbSpline
210
0
220
0
230
0
 70
    8
 71
    3
 72
    9
 73
    5
 74
    0
 42
1e-07
 43
1e-07
 40
0
 40
0
 40
0
 40
0
 40
0.5
 40
1
 40
1
 40
1
 40
1
 10
803.1264128199991
 20
-838.9504255000002
 30
0
 10
803.6587327899992
 20
-839.8392425199997
 30
0
 10
804.52136666
 20
-840.9778148500002
 30
0
 10
805.6726350999993
 20
-842.1860171600001
 30
0
 10
806.1366833699997
 20
-842.2404905300002
 30
0
  0
SPLINE
  5
525
100
AcDbEntity
  8
0
  6
CONTINUOUS
 62
    7
370
   -1
100
AcDbSpline
210
0
220
0
230
0
 70
    8
 71
    3
 72
    9
 73
    5
 74
    0
 42
1e-07
 43
1e-07
 40
0
 40
0
 40
0
 40
0
 40
0.5
 40
1
 40
1
 40
1
 40
1
 10
804.7837565499995
 20
-536.6706962800004
 30
0
 10
804.748956819999
 20
-538.0571542900001
 30
0
 10
804.4386643199998
 20
-544.5530917100002
 30
0
 10
803.7155256099995
 20
-551.0198619499998
 30
0
 10
803.1264128199991
 20
-556.1004758099999
 30
0
  0
SPLINE
  5
526
100
AcDbEntity
  8
0
  6
CONTINUOUS
 62
    7
370
   -1
100
AcDbSpline
210
0
220
0
230
0
 70
    8
 71
    3
 72
    9
 73
    5
 74
    0
 42
1e-07
 43
1e-07
 40
0
 40
0
 40
0
 40
0
 40
0.5
 40
1
 40
1
 40
1
 40
1
 10
774.0999100699992
 20
-848.9069168000003
 30
0
 10
776.8385886699998
 20
-848.9069168000003
 30
0
 10
787.1674752099989
 20
-848.0640414100001
 30
0
 10
797.1613085699994
 20
-843.6623276600003
 30
0
 10
803.1264128199991
 20
-838.9504255000002
 30
0
  0
SPLINE
  5
527
100
AcDbEntity
  8
0
  6
CONTINUOUS
 62
    7
370
   -1
100
AcDbSpline
210
0
220
0
230
0
 70
    8
 71
    3
 72
    9
 73
    5
 74
    0
 42
1e-07
 43
1e-07
 40
0
 40
0
 40
0
 40
0
 40
0.5
 40
1
 40
1
 40
1
 40
1
 10
803.1264128199991
 20
-556.1004758099999
 30
0
 10
801.4270352099988
 20
-554.4961354500001
 30
0
 10
793.637535939999
 20
-548.0715063299999
 30
0
 10
783.2727836399993
 20
-544.5469156800002
 30
0
 10
775.5072559399994
 20
-544.5469156800002
 30
0
  0
SPLINE
  5
528
100
AcDbEntity
  8
0
  6
CONTINUOUS
 62
    7
370
   -1
100
AcDbSpline
210
0
220
0
230
0
 70
    8
 71
    3
 72
    8
 73
    4
 74
    0
 42
1e-07
 43
1e-07
 40
0
 40
0
 40
0
 40
0
 40
1
 40
1
 40
1
 40
1
 10
804.7837550799995
 20
-536.6708064600002
 30
0
 10
818.4015435999995
 20
-545.1507272799998
 30
0
 10
828.2453256599993
 20
-562.6492014200001
 30
0
 10
828.2453380499992
 20
-578.69143385
 30
0
  0
SPLINE
  5
529
100
AcDbEntity
  8
0
  6
CONTINUOUS
 62
    7
370
   -1
100
AcDbSpline
210
0
220
0
230
0
 70
    8
 71
    3
 72
    9
 73
    5
 74
    0
 42
1e-07
 43
1e-07
 40
0
 40
0
 40
0
 40
0
 40
0.5
 40
1
 40
1
 40
1
 40
1
 10
760.0296500899992
 20
-578.1989467499999
 30
0
 10
772.5359284899994
 20
-578.6601535100001
 30
0
 10
797.874307919999
 20
-589.3369730900001
 30
0
 10
809.2084863699993
 20
-614.5394265200002
 30
0
 10
809.6819082699994
 20
-626.8792972100003
 30
0
  0
SPLINE
  5
52A
100
AcDbEntity
  8
0
  6
CONTINUOUS
 62
    7
370
   -1
100
AcDbSpline
210
0
220
0
230
0
 70
    8
 71
    3
 72
    9
 73
    5
 74
    0
 42
1e-07
 43
1e-07
 40
0
 40
0
 40
0
 40
0
 40
0.5
 40
1
 40
1
 40
1
 40
1
 10
685.2718513799987
 20
-767.8260441299999
 30
0
 10
710.9736969899989
 20
-742.26003618
 30
0
 10
755.2731529599992
 20
-697.91584468
 30
0
 10
795.6712219999995
 20
-649.3753632500002
 30
0
 10
809.6819137999998
 20
-626.8792972100003
 30
0
  0
SPLINE
  5
52B
100
AcDbEntity
  8
0
  6
CONTINUOUS
 62
    7
370
   -1
100
AcDbSpline
210
0
220
0
230
0
 70
    8
 71
    3
 72
    9
 73
    5
 74
    0
 42
1e-07
 43
1e-07
 40
0
 40
0
 40
0
 40
0
 40
0.5
 40
1
 40
1
 40
1
 40
1
 10
809.6819137999998
 20
-794.2299730100003
 30
0
 10
802.8852278199997
 20
-792.3491471400002
 30
0
 10
761.7760581799989
 20
-781.9133192199999
 30
0
 10
719.9732513999991
 20
-774.56242056
 30
0
 10
685.2718513799987
 20
-767.8260441299999
 30
0
  0
SPLINE
  5
52C
100
AcDbEntity
  8
0
  6
CONTINUOUS
 62
    7
370
   -1
100
AcDbSpline
210
0
220
0
230
0
 70
    8
 71
    3
 72
   11
 73
    7
 74
    0
 42
1e-07
 43
1e-07
 40
0
 40
0
 40
0
 40
0
 40
0.25
 40
0.5
 40
0.75
 40
1
 40
1
 40
1
 40
1
 10
828.2453432299997
 20
-800.61764255
 30
0
 10
828.2453121499996
 20
-800.1492119300003
 30
0
 10
825.9866791300001
 20
-799.5752906799999
 30
0
 10
823.1072032299999
 20
-798.1147611899999
 30
0
 10
816.9395217099991
 20
-796.34431258
 30
0
 10
812.3947178099993
 20
-794.9793384100003
 30
0
 10
809.6819137999998
 20
-794.2299730100003
 30
0
  0
SPLINE
  5
52D
100
AcDbEntity
  8
0
  6
CONTINUOUS
 62
    7
370
   -1
100
AcDbSpline
210
0
220
0
230
0
 70
    8
 71
    3
 72
    9
 73
    5
 74
    0
 42
1e-07
 43
1e-07
 40
0
 40
0
 40
0
 40
0
 40
0.5
 40
1
 40
1
 40
1
 40
1
 10
809.6819137999998
 20
-626.8792972100003
 30
0
 10
812.5482786299995
 20
-622.2842676099999
 30
0
 10
821.059371849999
 20
-607.3932628799998
 30
0
 10
828.2452800899994
 20
-590.5793265100001
 30
0
 10
828.2453432299997
 20
-578.69143385
 30
0
  0
SPLINE
  5
52E
100
AcDbEntity
  8
0
  6
CONTINUOUS
 62
    7
370
   -1
100
AcDbSpline
210
0
220
0
230
0
 70
    8
 71
    3
 72
    9
 73
    5
 74
    0
 42
1e-07
 43
1e-07
 40
0
 40
0
 40
0
 40
0
 40
0.5
 40
1
 40
1
 40
1
 40
1
 10
760.0296500899992
 20
-578.1989429700002
 30
0
 10
761.7831190100001
 20
-575.2433626499999
 30
0
 10
767.7337309499994
 20
-564.69699122
 30
0
 10
772.8133972899996
 20
-553.5731281200003
 30
0
 10
775.299091899999
 20
-545.25462723
 30
0
  0
LINE
  5
52F
100
AcDbEntity
  8
0
  6
CONTINUOUS
 62
    7
370
   -1
100
AcDbLine
 10
775.299091899999
 20
-545.25462723
 11
775.5072559399994
 21
-544.5469104299998
  0
SPLINE
  5
530
100
AcDbEntity
  8
0
  6
CONTINUOUS
 62
    7
370
   -1
100
AcDbSpline
210
0
220
0
230
0
 70
    8
 71
    3
 72
    9
 73
    5
 74
    0
 42
1e-07
 43
1e-07
 40
0
 40
0
 40
0
 40
0
 40
0.5
 40
1
 40
1
 40
1
 40
1
 10
565.1994660799994
 20
-799.2632106600004
 30
0
 10
605.7635695199997
 20
-757.2911745400004
 30
0
 10
673.9534603099989
 20
-686.9414152000002
 30
0
 10
739.642960969999
 20
-612.5598563400001
 30
0
 10
760.0296500899992
 20
-578.1989429700002
 30
0
  0
SPLINE
  5
531
100
AcDbEntity
  8
0
  6
CONTINUOUS
 62
    7
370
   -1
100
AcDbSpline
210
0
220
0
230
0
 70
    8
 71
    3
 72
    8
 73
    4
 74
    0
 42
1e-07
 43
1e-07
 40
0
 40
0
 40
0
 40
0
 40
1
 40
1
 40
1
 40
1
 10
553.6363742599988
 20
-799.9999995799999
 30
0
 10
557.3979629999999
 20
-799.9999961500002
 30
0
 10
561.2484326299998
 20
-799.9751297000003
 30
0
 10
564.8744273099987
 20
-798.9742738300001
 30
0
  0
SPLINE
  5
532
100
AcDbEntity
  8
0
  6
CONTINUOUS
 62
    7
370
   -1
100
AcDbSpline
210
0
220
0
230
0
 70
    8
 71
    3
 72
    8
 73
    4
 74
    0
 42
1e-07
 43
1e-07
 40
0
 40
0
 40
0
 40
0
 40
1
 40
1
 40
1
 40
1
 10
606.5095397099992
 20
-429.1077971300003
 30
0
 10
603.2073130899987
 20
-430.9598891200004
 30
0
 10
599.6932904799992
 20
-432.4192811800002
 30
0
 10
596.1837742599996
 20
-433.83992915
 30
0
  0
SPLINE
  5
533
100
AcDbEntity
  8
0
  6
CONTINUOUS
 62
    7
370
   -1
100
AcDbSpline
210
0
220
0
230
0
 70
    8
 71
    3
 72
    9
 73
    5
 74
    0
 42
1e-07
 43
1e-07
 40
0
 40
0
 40
0
 40
0
 40
0.5
 40
1
 40
1
 40
1
 40
1
 10
618.6546969299989
 20
-422.8696016000001
 30
0
 10
618.383106519999
 20
-423.3128212999999
 30
0
 10
616.431212239999
 20
-425.3977605200004
 30
0
 10
613.6079560699986
 20
-426.2759178700003
 30
0
 10
611.428040499999
 20
-426.9562408700001
 30
0
  0
SPLINE
  5
534
100
AcDbEntity
  8
0
  6
CONTINUOUS
 62
    7
370
   -1
100
AcDbSpline
210
0
220
0
230
0
 70
    8
 71
    3
 72
    8
 73
    4
 74
    0
 42
1e-07
 43
1e-07
 40
0
 40
0
 40
0
 40
0
 40
1
 40
1
 40
1
 40
1
 10
611.428040499999
 20
-426.9562408700001
 30
0
 10
609.7197961999987
 20
-427.4893614299999
 30
0
 10
608.0703170399988
 20
-428.2324171000001
 30
0
 10
606.5095397099992
 20
-429.1077971300003
 30
0
  0
SPLINE
  5
535
100
AcDbEntity
  8
0
  6
CONTINUOUS
 62
    7
370
   -1
100
AcDbSpline
210
0
220
0
230
0
 70
    8
 71
    3
 72
    8
 73
    4
 74
    0
 42
1e-07
 43
1e-07
 40
0
 40
0
 40
0
 40
0
 40
1
 40
1
 40
1
 40
1
 10
469.1497045799999
 20
-440.2899108000001
 30
0
 10
465.4935061599999
 20
-437.7488020900003
 30
0
 10
461.5797918099993
 20
-435.5105861800001
 30
0
 10
457.45258152
 20
-433.8399109500003
 30
0
  0
SPLINE
  5
536
100
AcDbEntity
  8
0
  6
CONTINUOUS
 62
    7
370
   -1
100
AcDbSpline
210
0
220
0
230
0
 70
    8
 71
    3
 72
    8
 73
    4
 74
    0
 42
1e-07
 43
1e-07
 40
0
 40
0
 40
0
 40
0
 40
1
 40
1
 40
1
 40
1
 10
596.1837742599996
 20
-433.83992915
 30
0
 10
592.0565748899999
 20
-435.51061453
 30
0
 10
588.14276212
 20
-437.7486659400002
 30
0
 10
584.4866511299997
 20
-440.2898893800002
 30
0
  0
SPLINE
  5
537
100
AcDbEntity
  8
0
  6
CONTINUOUS
 62
    7
370
   -1
100
AcDbSpline
210
0
220
0
230
0
 70
    8
 71
    3
 72
    8
 73
    4
 74
    0
 42
1e-07
 43
1e-07
 40
0
 40
0
 40
0
 40
0
 40
1
 40
1
 40
1
 40
1
 10
488.4367470399998
 20
-799.26322151
 30
0
 10
492.2054482699998
 20
-799.7210460100002
 30
0
 10
496.0591026899997
 20
-800.2126211500001
 30
0
 10
499.8182638999988
 20
-799.6821316100004
 30
0
  0
LINE
  5
538
100
AcDbEntity
  8
0
  6
CONTINUOUS
 62
    7
370
   -1
100
AcDbLine
 10
619.5683225099997
 20
-420.9607131500003
 11
618.6546969299989
 21
-422.8696016000001
  0
SPLINE
  5
539
100
AcDbEntity
  8
0
  6
CONTINUOUS
 62
    7
370
   -1
100
AcDbSpline
210
0
220
0
230
0
 70
    8
 71
    3
 72
    9
 73
    5
 74
    0
 42
1e-07
 43
1e-07
 40
0
 40
0
 40
0
 40
0
 40
0.5
 40
1
 40
1
 40
1
 40
1
 10
760.0296500899992
 20
-844.4194275699999
 30
0
 10
734.9893804999992
 20
-837.2336699
 30
0
 10
665.9545883099991
 20
-823.0575615900004
 30
0
 10
596.9697372699993
 20
-809.3325630299998
 30
0
 10
553.6362339799996
 20
-800.0000035000003
 30
0
  0
SPLINE
  5
53A
100
AcDbEntity
  8
0
  6
CONTINUOUS
 62
    7
370
   -1
100
AcDbSpline
210
0
220
0
230
0
 70
    8
 71
    3
 72
   11
 73
    7
 74
    0
 42
1e-07
 43
1e-07
 40
0
 40
0
 40
0
 40
0
 40
0.25
 40
0.5
 40
0.75
 40
1
 40
1
 40
1
 40
1
 10
661.455645049999
 20
-563.1574684100002
 30
0
 10
661.4556451199992
 20
-570.9193002500001
 30
0
 10
659.5018987099988
 20
-588.6762981100002
 30
0
 10
643.2408521599987
 20
-617.72801521
 30
0
 10
600.8334602799994
 20
-647.6033693199998
 30
0
 10
559.2820640299997
 20
-655.8254717400002
 30
0
 10
533.3490997699996
 20
-655.8254717400002
 30
0
  0
LINE
  5
53B
100
AcDbEntity
  8
0
  6
CONTINUOUS
 62
    7
370
   -1
100
AcDbLine
 10
774.0999100699992
 20
-848.9061846700001
 11
768.5359009199997
 21
-846.9919320499998
  0
LINE
  5
53C
100
AcDbEntity
  8
0
  6
CONTINUOUS
 62
    7
370
   -1
100
AcDbLine
 10
768.5359009199997
 20
-846.9919320499998
 11
760.0296500899992
 21
-844.4194275699999
  0
SPLINE
  5
53D
100
AcDbEntity
  8
0
  6
CONTINUOUS
 62
    7
370
   -1
100
AcDbSpline
210
0
220
0
230
0
 70
    8
 71
    3
 72
    9
 73
    5
 74
    0
 42
1e-07
 43
1e-07
 40
0
 40
0
 40
0
 40
0
 40
0.5
 40
1
 40
1
 40
1
 40
1
 10
685.2726759099999
 20
-767.8260441299999
 30
0
 10
669.5455005999988
 20
-773.7746736700001
 30
0
 10
630.0500353599989
 20
-786.2731054199999
 30
0
 10
589.6299259799991
 20
-796.2953977000002
 30
0
 10
565.1994660799994
 20
-799.26322802
 30
0
  0
SPLINE
  5
53E
100
AcDbEntity
  8
0
  6
CONTINUOUS
 62
    7
370
   -1
100
AcDbSpline
210
0
220
0
230
0
 70
    8
 71
    3
 72
    9
 73
    5
 74
    0
 42
1e-07
 43
1e-07
 40
0
 40
0
 40
0
 40
0
 40
0.5
 40
1
 40
1
 40
1
 40
1
 10
760.0296500899992
 20
-844.4193920800001
 30
0
 10
772.6960466299997
 20
-844.3338488599998
 30
0
 10
799.0341387599992
 20
-833.3954625899999
 30
0
 10
809.5975603699999
 20
-806.9923325500001
 30
0
 10
809.6819270999997
 20
-794.2299730100003
 30
0
  0
SPLINE
  5
53F
100
AcDbEntity
  8
0
  6
CONTINUOUS
 62
    7
370
   -1
100
AcDbSpline
210
0
220
0
230
0
 70
    8
 71
    3
 72
    8
 73
    4
 74
    0
 42
1e-07
 43
1e-07
 40
0
 40
0
 40
0
 40
0
 40
1
 40
1
 40
1
 40
1
 10
806.1366809899996
 20
-842.2405032000001
 30
0
 10
819.1533531899995
 20
-833.4443446400001
 30
0
 10
828.2453489699988
 20
-816.3277081800004
 30
0
 10
828.2453425999995
 20
-800.61764255
 30
0
  0
SPLINE
  5
540
100
AcDbEntity
  8
0
  6
CONTINUOUS
 62
    7
370
   -1
100
AcDbSpline
210
0
220
0
230
0
 70
    8
 71
    3
 72
    8
 73
    4
 74
    0
 42
1e-07
 43
1e-07
 40
0
 40
0
 40
0
 40
0
 40
1
 40
1
 40
1
 40
1
 10
771.7671190499989
 20
-523.4183916899999
 30
0
 10
771.917583839999
 20
-520.3459809500002
 30
0
 10
772.2910601599997
 20
-517.26775517
 30
0
 10
772.9836962299992
 20
-514.2706562400001
 30
0
  0
SPLINE
  5
541
100
AcDbEntity
  8
0
  6
CONTINUOUS
 62
    7
370
   -1
100
AcDbSpline
210
0
220
0
230
0
 70
    8
 71
    3
 72
    8
 73
    4
 74
    0
 42
1e-07
 43
1e-07
 40
0
 40
0
 40
0
 40
0
 40
1
 40
1
 40
1
 40
1
 10
806.8223428899989
 20
-515.26982133
 30
0
 10
819.4691327099988
 20
-524.0966583699999
 30
0
 10
828.2453433699998
 20
-540.85636819
 30
0
 10
828.2453432999996
 20
-556.2788953800002
 30
0
  0
ELLIPSE
  5
542
100
AcDbEntity
  8
0
  6
CONTINUOUS
 62
    7
370
   -1
100
AcDbEllipse
 10
526.8181778899998
 20
-502.9174076200003
 30
0
 11
133.9504369
 21
0
 31
0
 40
0.8851135872
 41
7.853981634
 42
7.9068838091
  0
ELLIPSE
  5
543
100
AcDbEntity
  8
0
  6
CONTINUOUS
 62
    7
370
   -1
100
AcDbEllipse
 10
526.8181778899998
 20
-502.9174076200003
 30
0
 11
133.9504369
 21
0
 31
0
 40
0.8851135872
 41
1.491443064
 42
1.5178941516
  0
ELLIPSE
  5
544
100
AcDbEntity
  8
0
  6
CONTINUOUS
 62
    7
370
   -1
100
AcDbEllipse
 10
526.8181778899998
 20
-502.9174076200003
 30
0
 11
133.9504369
 21
0
 31
0
 40
0.8851135872
 41
0.0388832074
 42
0.8058982685
  0
ELLIPSE
  5
545
100
AcDbEntity
  8
0
  6
CONTINUOUS
 62
    7
370
   -1
100
AcDbEllipse
 10
513.8666011399991
 20
-384.3560528200003
 30
0
 11
47.76287642
 21
-0
 31
0
 40
0.9625331618
 41
-3.141592586
 42
-2.8834864816
  0
ELLIPSE
  5
546
100
AcDbEntity
  8
0
  6
CONTINUOUS
 62
    7
370
   -1
100
AcDbEllipse
 10
539.7697453299998
 20
-384.3560528200003
 30
0
 11
47.7628739
 21
0
 31
0
 40
0.9625331618
 41
-0.2581026552
 42
-6.76e-08
  0
LINE
  5
547
100
AcDbEntity
  8
centerOfmass
  6
ByLayer
 62
  256
370
   -1
100
AcDbLine
 10
526.8181778549997
 20
-655.8255098899999
 11
526.8181778549997
 21
-155.8255098899999
  0
LINE
  5
548
100
AcDbEntity
  8
centerOfmass
  6
ByLayer
 62
  256
370
   -1
100
AcDbLine
 10
524.3998232099988
 20
-889.7381502500002
 11
524.3998232099988
 21
-713.7381502500002
  0
ARC
  5
549
100
AcDbEntity
  8
0
  6
CONTINUOUS
 62
    7
370
   -1
100
AcDbCircle
 10
-1843.94586155
 20
-6584.332124929999
 40
6056.66840191
100
AcDbArc
 50
81.54018589570001
 51
82.869713175
  0
ARC
  5
54A
100
AcDbEntity
  8
0
  6
CONTINUOUS
 62
    7
370
   -1
100
AcDbCircle
 10
-989.618068
 20
-751.0536011299994
 40
204.16666669
100
AcDbArc
 50
220.8744334655
 51
226.3686207314
  0
ARC
  5
54B
100
AcDbEntity
  8
0
  6
CONTINUOUS
 62
    7
370
   -1
100
AcDbCircle
 10
-989.618068
 20
-751.0536011299994
 40
204.16666669
100
AcDbArc
 50
112.672138719
 51
120.1473472165
  0
ARC
  5
54C
100
AcDbEntity
  8
0
  6
CONTINUOUS
 62
    7
370
   -1
100
AcDbCircle
 10
-989.618068
 20
-751.0536011299994
 40
204.16666669
100
AcDbArc
 50
314.6633312207
 51
322.2102907338
  0
ARC
  5
54D
100
AcDbEntity
  8
0
  6
CONTINUOUS
 62
    7
370
   -1
100
AcDbCircle
 10
-938.0216673400002
 20
1121.71543659
 40
2020.07491014
100
AcDbArc
 50
272.3499997383
 51
272.6080581092
  0
SPLINE
  5
54E
100
AcDbEntity
  8
0
  6
CONTINUOUS
 62
    7
370
   -1
100
AcDbSpline
210
0
220
0
230
0
 70
    8
 71
    3
 72
    8
 73
    4
 74
    0
 42
1e-07
 43
1e-07
 40
0
 40
0
 40
0
 40
0
 40
1
 40
1
 40
1
 40
1
 10
-835.3608513200002
 20
-617.3048109899994
 30
0
 10
-874.0142818699999
 20
-607.1081426199996
 30
0
 10
-913.37033035
 20
-599.4205097299994
 30
0
 10
-952.9148339500002
 20
-593.5645748899999
 30
0
  0
SPLINE
  5
54F
100
AcDbEntity
  8
0
  6
CONTINUOUS
 62
    7
370
   -1
100
AcDbSpline
210
0
220
0
230
0
 70
    8
 71
    3
 72
    8
 73
    4
 74
    0
 42
1e-07
 43
1e-07
 40
0
 40
0
 40
0
 40
0
 40
1
 40
1
 40
1
 40
1
 10
-1143.99778496
 20
-884.6609765699994
 30
0
 10
-1081.92754666
 20
-882.5984957299994
 30
0
 10
-1019.82530744
 20
-880.5603814699999
 30
0
 10
-957.7218551200001
 20
-880.9202813599994
 30
0
  0
SPLINE
  5
550
100
AcDbEntity
  8
0
  6
CONTINUOUS
 62
    7
370
   -1
100
AcDbSpline
210
0
220
0
230
0
 70
    8
 71
    3
 72
    8
 73
    4
 74
    0
 42
1e-07
 43
1e-07
 40
0
 40
0
 40
0
 40
0
 40
1
 40
1
 40
1
 40
1
 10
-957.7218551200001
 20
-880.9202813599994
 30
0
 10
-914.5435491100002
 20
-881.1696043499996
 30
0
 10
-871.2744256600001
 20
-880.0641423699996
 30
0
 10
-828.2722803900001
 20
-876.1598144599999
 30
0
  0
LINE
  5
551
100
AcDbEntity
  8
0
  6
CONTINUOUS
 62
    7
370
   -1
100
AcDbLine
 10
-1126.46776917
 20
-898.8587712299997
 11
-1130.49634463
 21
-898.8282233699995
  0
LINE
  5
552
100
AcDbEntity
  8
0
  6
ByLayer
 62
  256
370
   -1
100
AcDbLine
 10
-1116.31161167
 20
-562.3416583799998
 11
-1077.851377638882
 21
-566.9370324636384
  0
LINE
  5
553
100
AcDbEntity
  8
0
  6
ByLayer
 62
  256
370
   -1
100
AcDbLine
 10
-760.8325538199999
 20
-625.8626130800001
 11
-843.324321170967
 21
-608.6381264580791
  0
LINE
  5
554
100
AcDbEntity
  8
0
  6
ByLayer
 62
  256
370
   -1
100
AcDbLine
 10
-796.9478432399998
 20
-893.1799709399997
 11
-769.4475758999999
 21
-892.0131949799999
  0
LINE
  5
555
100
AcDbEntity
  8
0
  6
ByLayer
 62
  256
370
   -1
100
AcDbLine
 10
-1180.543214687564
 20
-898.5541963063106
 11
-1130.49634463
 21
-898.8282233699995
  0
LINE
  5
556
100
AcDbEntity
  8
0
  6
ByLayer
 62
  256
370
   -1
100
AcDbLine
 10
-843.324321170967
 20
-608.6381264580791
 11
-849.5718362214645
 21
-607.7763731514416
  0
CIRCLE
  5
557
100
AcDbEntity
  8
frame
  6
ByLayer
 62
  256
370
   -1
100
AcDbCircle
 10
-2272.500000010455
 20
432.8137802399995
 40
12.5
  0
CIRCLE
  5
558
100
AcDbEntity
  8
frame
  6
ByLayer
 62
  256
370
   -1
100
AcDbCircle
 10
-2272.500000010455
 20
55.43525443000102
 40
12.5
  0
INSERT
  5
559
100
AcDbEntity
  8
internals
  6
ByLayer
 62
  256
370
   -1
100
AcDbBlockReference
  2
batteryS
 10
-842.9560109388019
 20
-706.5954797575251
 30
0
 41
1
 42
1
 43
0
 50
0
 70
    1
 71
    1
 44
0
 45
0
  0
INSERT
  5
55A
100
AcDbEntity
  8
internals
  6
ByLayer
 62
  256
370
   -1
100
AcDbBlockReference
  2
batteryT
 10
-842.9560109388018
 20
160
 30
0
 41
1
 42
1
 43
0
 50
0
 70
    1
 71
    1
 44
0
 45
0
  0
INSERT
  5
55B
100
AcDbEntity
  8
internals
  6
ByLayer
 62
  256
370
   -1
100
AcDbBlockReference
  2
batteryT
 10
-840
 20
460
 30
0
 41
1
 42
1
 43
0
 50
0
 70
    1
 71
    1
 44
0
 45
0
  0
LINE
  5
55C
100
AcDbEntity
  8
annotations
  6
ByLayer
 62
  256
370
   -1
100
AcDbLine
 10
-1762.415592618284
 20
-516.8241223369372
 11
-1783.949931048989
 21
-547.4255506332032
  0
MTEXT
  5
55D
100
AcDbEntity
  8
annotations
  6
ByLayer
 62
  256
370
   -1
100
AcDbMText
 10
-1766.949137551064
 20
-500.9567150722066
 30
0
 40
10
 41
137.2222273650975
 71
    1
 72
    5
  1
bonnet hindges here
  7
iso
210
0
220
0
230
1
 50
0
 73
    1
 44
0.96
  0
MTEXT
  5
55E
100
AcDbEntity
  8
annotations
  6
ByLayer
 62
  256
370
   -1
100
AcDbMText
 10
-1652.264618079642
 20
-1034.214937790473
 30
0
 40
10
 41
131.6704815297867
 71
    1
 72
    5
  1
seat fastened here
  7
iso
210
0
220
0
230
1
 50
0
 73
    1
 44
0.96
  0
LINE
  5
55F
100
AcDbEntity
  8
annotations
  6
ByLayer
 62
  256
370
   -1
100
AcDbLine
 10
-1510.591338930262
 20
-1018.276693886167
 11
-1188.284628865423
 21
-690.6572358532266
  0
LINE
  5
560
100
AcDbEntity
  8
annotations
  6
ByLayer
 62
  256
370
   -1
100
AcDbLine
 10
-1666.874674991923
 20
-1020.490338872877
 11
-1850.607208888774
 21
-858.8942548431155
  0
MTEXT
  5
561
100
AcDbEntity
  8
annotations
  6
ByLayer
 62
  256
370
   -1
100
AcDbMText
 10
-3078.560355916032
 20
-857.1233388537502
 30
0
 40
10
 41
149.4444495873197
 71
    1
 72
    5
  1
impact foam nosecomb\P(100mm thick)
  7
iso
210
0
220
0
230
1
 50
0
 73
    1
 44
0.96
  0
LINE
  5
562
100
AcDbEntity
  8
annotations
  6
ByLayer
 62
  256
370
   -1
100
AcDbLine
 10
-3024.724509839267
 20
-847.2062093132936
 11
-2983.639258885947
 21
-811.7878895259485
  0
MTEXT
  5
563
100
AcDbEntity
  8
annotations
  6
ByLayer
 62
  256
370
   -1
100
AcDbMText
 10
-1584.969810483693
 20
624.2478862519575
 30
0
 40
10
 41
143.8888940317648
 71
    1
 72
    5
  1
50mm insulation foam\P(single layer)
  7
iso
210
0
220
0
230
1
 50
0
 73
    1
 44
0.96
  0
LINE
  5
564
100
AcDbEntity
  8
annotations
  6
ByLayer
 62
  256
370
   -1
100
AcDbLine
 10
-1509.705880935585
 20
579.9749865177761
 11
-1494.210366028622
 21
546.7703117171401
  0
MTEXT
  5
565
100
AcDbEntity
  8
annotations
  6
ByLayer
 62
  256
370
   -1
100
AcDbMText
 10
-2663.457648008354
 20
636.1130233807187
 30
0
 40
10
 41
143.8888940317648
 71
    1
 72
    5
  1
50mm insulation foam\P(double layer)
  7
iso
210
0
220
0
230
1
 50
0
 73
    1
 44
0.96
  0
LINE
  5
566
100
AcDbEntity
  8
annotations
  6
ByLayer
 62
  256
370
   -1
100
AcDbLine
 10
-2596.871206808145
 20
593.6110396359045
 11
-2575.620214935738
 21
545.4421247251151
  0
LINE
  5
567
100
AcDbEntity
  8
dimension
  6
ByLayer
 62
  256
370
   -1
100
AcDbLine
 10
-2031.633578927876
 20
67.93525443000108
 11
-1931.633578927876
 21
67.93525443000108
  0
DIMENSION
  5
568
100
AcDbEntity
  8
dimension
  6
ByLayer
 62
  256
370
   -1
100
AcDbDimension
  2
*D1
 10
-1910.922900809222
 20
17.93525443000109
 30
0
 11
0
 21
0
 31
0
 70
   34
 71
    5
 72
    0
  3
Standard
 53
0
210
0
220
0
230
1
100
AcDb2LineAngularDimension
 13
-2031.633578927876
 23
67.93525443000108
 33
0
 14
-1931.633578927876
 24
67.93525443000108
 34
0
 15
-2031.633578927876
 25
67.93525443000108
 35
0
 16
-1910.922900809222
 26
17.93525443000109
 36
0
  0
MTEXT
  5
569
100
AcDbEntity
  8
annotations
  6
ByLayer
 62
  256
370
   -1
100
AcDbMText
 10
-2183.355239627278
 20
-131.2914612533346
 30
0
 40
10
 41
122.7777829206518
 71
    1
 72
    5
  1
22.5 degree bends
  7
iso
210
0
220
0
230
1
 50
0
 73
    1
 44
0.96
  0
LINE
  5
56A
100
AcDbEntity
  8
annotations
  6
ByLayer
 62
  256
370
   -1
100
AcDbLine
 10
-2098.487278485619
 20
-120.4109534146605
 11
-2039.732536156779
 21
36.99372665149208
  0
LINE
  5
56B
100
AcDbEntity
  8
annotations
  6
ByLayer
 62
  256
370
   -1
100
AcDbLine
 10
-2098.487278485619
 20
-120.4109534146605
 11
-1921.497684309853
 21
-14.50734378489886
  0
MTEXT
  5
56C
100
AcDbEntity
  8
annotations
  6
ByLayer
 62
  256
370
   -1
100
AcDbMText
 10
-413.9516125146623
 20
-61.98205962786387
 30
0
 40
10
 41
58.88889403176181
 71
    1
 72
    5
  1
batteries
  7
iso
210
0
220
0
230
1
 50
0
 73
    1
 44
0.96
  0
LINE
  5
56D
100
AcDbEntity
  8
annotations
  6
ByLayer
 62
  256
370
   -1
100
AcDbLine
 10
-431.6607724083377
 20
-46.4865447208979
 11
-630.8888212121858
 21
55.3411246677356
  0
LINE
  5
56E
100
AcDbEntity
  8
annotations
  6
ByLayer
 62
  256
370
   -1
100
AcDbLine
 10
-431.6607724083377
 20
-46.4865447208979
 11
-628.6751762254764
 21
349.755907900089
  0
MTEXT
  5
56F
100
AcDbEntity
  8
annotations
  6
ByLayer
 62
  256
370
   -1
100
AcDbMText
 10
-993.9265990325322
 20
-1038.199498766721
 30
0
 40
10
 41
165.8371481964538
 71
    1
 72
    5
  1
seat belt fastened here
  7
iso
210
0
220
0
230
1
 50
0
 73
    1
 44
0.96
  0
MTEXT
  5
570
100
AcDbEntity
  8
annotations
  6
ByLayer
 62
  256
370
   -1
100
AcDbMText
 10
-1221.932032663603
 20
-1029.344918819883
 30
0
 40
10
 41
107.2222222222236
 71
    1
 72
    5
  1
motor and drive\Psproket
  7
iso
210
0
220
0
230
1
 50
0
 73
    1
 44
0.96
  0
LINE
  5
571
100
AcDbEntity
  8
annotations
  6
ByLayer
 62
  256
370
   -1
100
AcDbLine
 10
-1175.445487942705
 20
-1011.635758926208
 11
-1164.377263009158
 21
-869.9624797768043
  0
LINE
  5
572
100
AcDbEntity
  8
annotations
  6
ByLayer
 62
  256
370
   -1
100
AcDbLine
 10
-889.8852846571891
 20
-1031.558563806592
 11
-1011.635758926208
 21
-896.5262196173175
  0
MTEXT
  5
573
100
AcDbEntity
  8
annotations
  6
ByLayer
 62
  256
370
   -1
100
AcDbMText
 10
-511.7947209272193
 20
-543.6712087358351
 30
0
 40
10
 41
142.7777777777811
 71
    1
 72
    5
  1
roll bar triangulation 
  7
iso
210
0
220
0
230
1
 50
0
 73
    1
 44
0.96
  0
LINE
  5
574
100
AcDbEntity
  8
annotations
  6
ByLayer
 62
  256
370
   -1
100
AcDbLine
 10
-517.107468895322
 20
-568.4640325869806
 11
-718.9918916832215
 21
-582.6313605019209
  0
MTEXT
  5
575
100
AcDbEntity
  8
annotations
  6
ByLayer
 62
  256
370
   -1
100
AcDbMText
 10
-274.4919783519688
 20
-982.8583740989851
 30
0
 40
10
 41
195.5555606984304
 71
    1
 72
    5
  1
removable rear made out\Pof insulation foam -could be \Pfiberglassed?
  7
iso
210
0
220
0
230
1
 50
0
 73
    1
 44
0.96
  0
LINE
  5
576
100
AcDbEntity
  8
annotations
  6
ByLayer
 62
  256
370
   -1
100
AcDbLine
 10
-281.575642309439
 20
-965.1492142053097
 11
-378.9760217246537
 21
-871.2906667688301
  0
LINE
  5
577
100
AcDbEntity
  8
dimension
  6
ByLayer
 62
  256
370
   -1
100
AcDbLine
 10
-1009.652829808875
 20
-897.4527432421294
 11
-1009.652829808875
 21
-797.4527432421294
  0
DIMENSION
  5
578
100
AcDbEntity
  8
dimension
  6
ByLayer
 62
  256
370
   -1
100
AcDbDimension
  2
*D2
 10
-879.9171657753416
 20
-265.1747202991526
 30
0
 11
0
 21
0
 31
0
 70
   34
 71
    5
 72
    0
  3
Standard
 53
0
210
0
220
0
230
1
100
AcDb2LineAngularDimension
 13
-1009.652829808875
 23
-897.4527432421294
 33
0
 14
-1009.652829808875
 24
-797.4527432421294
 34
0
 15
-1009.652829808875
 25
-897.4527432421294
 35
0
 16
-1009.652829808875
 26
-797.4527432421294
 36
0
  0
MTEXT
  5
579
100
AcDbEntity
  8
annotations
  6
ByLayer
 62
  256
370
   -1
100
AcDbMText
 10
-622.9090737641316
 20
-229.3973735987268
 30
0
 40
10
 41
132.7777809753003
 71
    1
 72
    5
  1
roll bar faring,\Phollowed out resin?
  7
iso
210
0
220
0
230
1
 50
0
 73
    1
 44
0.96
  0
LINE
  5
57A
100
AcDbEntity
  8
annotations
  6
ByLayer
 62
  256
370
   -1
100
AcDbLine
 10
-633.7895816028064
 20
-258.4120611685262
 11
-748.0349139088917
 21
-285.6133307652132
  0
LINE
  5
57B
100
AcDbEntity
  8
annotations
  6
ByLayer
 62
  256
370
   -1
100
AcDbLine
 10
-990.5795678126854
 20
-242.5446539037925
 11
-913.5093039554055
 21
-451.0877208117263
  0
MTEXT
  5
57C
100
AcDbEntity
  8
annotations
  6
ByLayer
 62
  256
370
   -1
100
AcDbMText
 10
-1148.970293901728
 20
-175.6748661452704
 30
0
 40
10
 41
155.8333362539859
 71
    1
 72
    5
  1
rollbar crossbeam to \Pmount triangulation\P(200 mm from top of\Proll bar) (inside faring)
  7
iso
210
0
220
0
230
1
 50
0
 73
    1
 44
0.96
  0
MTEXT
  5
57D
100
AcDbEntity
  8
annotations
  6
ByLayer
 62
  256
370
   -1
100
AcDbMText
 10
-2393.711724508471
 20
-436.35369978019
 30
0
 40
10
 41
163.8927037520084
 71
    1
 72
    5
  1
steering coloum support
  7
iso
210
0
220
0
230
1
 50
0
 73
    1
 44
0.96
  0
LINE
  5
57E
100
AcDbEntity
  8
annotations
  6
ByLayer
 62
  256
370
   -1
100
AcDbLine
 10
-2286.040032354918
 20
-455.6212657445101
 11
-2272.439397556574
 21
-599.5613173603131
  0
MTEXT
  5
57F
100
AcDbEntity
  8
annotations
  6
ByLayer
 62
  256
370
   -1
100
AcDbMText
 10
-3158.871396034557
 20
-241.2873035513431
 30
0
 40
10
 41
233.0555606984299
 71
    1
 72
    5
  1
wheelarches are uncovered, \Pbut covers can be developed with\Ptime - initial model showed\P.6N improvement (10%)\P
  7
iso
210
0
220
0
230
1
 50
0
 73
    1
 44
0.96
  0
LINE
  5
580
100
AcDbEntity
  8
annotations
  6
ByLayer
 62
  256
370
   -1
100
AcDbLine
 10
-2937.5068973636
 20
-228.0054336310857
 11
-2408.445745540012
 21
0
  0
MTEXT
  5
581
100
AcDbEntity
  8
annotations
  6
ByLayer
 62
  256
370
   -1
100
AcDbMText
 10
66.86978775852496
 20
-935.0436423861541
 30
0
 40
10
 41
155.8333384762082
 71
    1
 72
    5
  1
estimated tilt angle of \P54 degrees
  7
iso
210
0
220
0
230
1
 50
0
 73
    1
 44
0.96
  0
LINE
  5
582
100
AcDbEntity
  8
annotations
  6
ByLayer
 62
  256
370
   -1
100
AcDbLine
 10
233.4775640382397
 20
-930.5100974533727
 11
265.2123785677092
 21
-898.7752829239033
  0
MTEXT
  5
583
100
AcDbEntity
  8
annotations
  6
ByLayer
 62
  256
370
   -1
100
AcDbMText
 10
-628.67517622554
 20
-376.3196477406402
 30
0
 40
10
 41
224.4444495873211
 71
    1
 72
    5
  1
flaps in roll bar faring allow \Pbatteries to be changed through\Pthe top of the car 
  7
iso
210
0
220
0
230
1
 50
0
 73
    1
 44
0.96
  0
LINE
  5
584
100
AcDbEntity
  8
annotations
  6
ByLayer
 62
  256
370
   -1
100
AcDbLine
 10
-610.9660163318629
 20
-427.2334824349621
 11
-739.3574255610224
 21
-615.3933063052822
  0
MTEXT
  5
585
100
AcDbEntity
  8
annotations
  6
ByLayer
 62
  256
370
   -1
100
AcDbMText
 10
-1706.72028475314
 20
-276.7056233387063
 30
0
 40
10
 41
256.9444547301936
 71
    1
 72
    5
  1
windshield follows the shape\Pof the cockpit, and could be \Pmade out of 50mm insulation\Pfoam - the shape is liable to change
  7
iso
210
0
220
0
230
1
 50
0
 73
    1
 44
0.96
  0
LINE
  5
586
100
AcDbEntity
  8
annotations
  6
ByLayer
 62
  256
370
   -1
100
AcDbLine
 10
-1553.978780670175
 20
-358.6104878469633
 11
-1514.133170909401
 21
-493.642832036252
  0
MTEXT
  5
587
100
AcDbEntity
  8
annotations
  6
ByLayer
 62
  256
370
   -1
100
AcDbMText
 10
-2184.867601882437
 20
743.7847155344466
 30
0
 40
10
 41
123.8888940317645
 71
    1
 72
    5
  1
550mm wheel base
  7
iso
210
0
220
0
230
1
 50
0
 73
    1
 44
0.96
  0
LINE
  5
588
100
AcDbEntity
  8
annotations
  6
ByLayer
 62
  256
370
   -1
100
AcDbLine
 10
-2151.662927081792
 20
717.2209756939307
 11
-2213.644986709663
 21
555.6248916641252
  0
MTEXT
  5
589
100
AcDbEntity
  8
annotations
  6
ByLayer
 62
  256
370
   -1
100
AcDbMText
 10
-254.0071151742055
 20
686.3596516409383
 30
0
 40
10
 41
295.0000154286211
 71
    1
 72
    5
  1
rear is easyily removable whilst \Ptransporting - may be worth cosidering\Peasy removal of the fron nosecomb incase \Pwe need the extra 100mm
  7
iso
210
0
220
0
230
1
 50
0
 73
    1
 44
0.96
  0
LINE
  5
58A
100
AcDbEntity
  8
annotations
  6
ByLayer
 62
  256
370
   -1
100
AcDbLine
 10
-259.4115218800397
 20
605.293551053426
 11
-372.904062702557
 21
432.3525364667328
  0
MTEXT
  5
58B
100
AcDbEntity
  8
annotations
  6
ByLayer
 62
  256
370
   -1
100
AcDbMText
 10
-1678.828357920617
 20
-146.9860271175224
 30
0
 40
10
 41
159.1666769524125
 71
    1
 72
    5
  1
cockpit front is shaped
  7
iso
210
0
220
0
230
1
 50
0
 73
    1
 44
0.96
  0
LINE
  5
58C
100
AcDbEntity
  8
annotations
  6
ByLayer
 62
  256
370
   -1
100
AcDbLine
 10
-1560.176986632981
 20
-129.2768672238452
 11
-1531.842330803097
 21
203.6553387772904
  0
MTEXT
  5
58D
100
AcDbEntity
  8
annotations
  6
ByLayer
 62
  256
370
   -1
100
AcDbMText
 10
-736.0369580809723
 20
-976.7708503856513
 30
0
 40
10
 41
208.8888940317642
 71
    1
 72
    5
  1
both rear wheels are mounted\Pon the same axel
  7
iso
210
0
220
0
230
1
 50
0
 73
    1
 44
0.96
  0
LINE
  5
58E
100
AcDbEntity
  8
annotations
  6
ByLayer
 62
  256
370
   -1
100
AcDbLine
 10
-755.4063517146822
 20
-971.2367379188771
 11
-979.5379066190384
 21
-763.7075204148435
  0
ELLIPSE
  5
58F
100
AcDbEntity
  8
Driver
  6
ByLayer
 62
  256
370
  200
100
AcDbEllipse
 10
-2779.99
 20
-771.734
 30
0
 11
66.56390587336861
 21
-99.846113769547
 31
0
 40
0.1865625
 41
0
 42
6.283185307179586
  0
ELLIPSE
  5
590
100
AcDbEntity
  8
Driver
  6
ByLayer
 62
  256
370
   -1
100
AcDbEllipse
 10
-2055.866975946621
 20
-716.0162356268733
 30
0
 11
242.45915220651
 21
-118.8005029926238
 31
0
 40
0.2338911111111111
 41
0
 42
6.283185307179586
  0
LINE
  5
591
100
AcDbEntity
  8
frame
  6
ByLayer
 62
  256
370
   -1
100
AcDbLine
 10
-2095.000000010455
 20
-872.8827704348485
 11
-2095.000000010455
 21
-592.3606674290018
  0
LINE
  5
592
100
AcDbEntity
  8
frame
  6
ByLayer
 62
  256
370
   -1
100
AcDbLine
 10
-2120.000000010455
 20
-872.6989611475956
 11
-2120.000000010455
 21
-593.8100817119674
  0
ELLIPSE
  5
593
100
AcDbEntity
  8
Driver
  6
ByLayer
 62
  256
370
   -1
100
AcDbEllipse
 10
-2479.259809887662
 20
-724.8693033999615
 30
0
 11
272.846851582221
 21
124.7180643758933
 31
0
 40
0.1331156666666667
 41
0
 42
6.283185307179586
  0
CIRCLE
  5
594
100
AcDbEntity
  8
frame
  6
ByLayer
 62
  256
370
   -1
100
AcDbCircle
 10
-2107.402994822291
 20
-835.2301291786223
 40
12.5
  0
CIRCLE
  5
595
100
AcDbEntity
  8
frame
  6
ByLayer
 62
  256
370
   -1
100
AcDbCircle
 10
-2399.792455072128
 20
-605.0551567165567
 40
12.5
  0
CIRCLE
  5
596
100
AcDbEntity
  8
frame
  6
ByLayer
 62
  256
370
   -1
100
AcDbCircle
 10
-2071.011245342429
 20
-578.5523688452172
 40
12.5
  0
LINE
  5
597
100
AcDbEntity
  8
frame
  6
ByLayer
 62
  256
370
   -1
100
AcDbLine
 10
-2409.03717307034
 20
244.1245173350001
 11
-2409.03717307034
 21
420.3137802399995
  0
LINE
  5
598
100
AcDbEntity
  8
frame
  6
ByLayer
 62
  256
370
   -1
100
AcDbLine
 10
-2384.03717307034
 20
244.1245173350001
 11
-2384.03717307034
 21
420.3137802399995
  0
LINE
  5
599
100
AcDbEntity
  8
frame
  6
ByLayer
 62
  256
370
   -1
100
AcDbLine
 10
-2384.03717307034
 20
244.1245173350001
 11
-2384.03717307034
 21
67.9352544300009
  0
LINE
  5
59A
100
AcDbEntity
  8
frame
  6
ByLayer
 62
  256
370
   -1
100
AcDbLine
 10
-2409.03717307034
 20
244.1245173350001
 11
-2409.03717307034
 21
67.93525443000088
  0
LINE
  5
59B
100
AcDbEntity
  8
frame
  6
ByLayer
 62
  256
370
   -1
100
AcDbLine
 10
-2056.986754210273
 20
67.935254430001
 11
-2056.986754210273
 21
420.3137802399995
  0
LINE
  5
59C
100
AcDbEntity
  8
frame
  6
ByLayer
 62
  256
370
   -1
100
AcDbLine
 10
-2081.986754210273
 20
67.93525443000098
 11
-2081.986754210273
 21
420.3137802399995
  0
LINE
  5
59D
100
AcDbEntity
  8
frame
  6
ByLayer
 62
  256
370
   -1
100
AcDbLine
 10
-2157.475559734256
 20
67.935254430001
 11
-2157.475559734256
 21
420.3137802399995
  0
LINE
  5
59E
100
AcDbEntity
  8
frame
  6
ByLayer
 62
  256
370
   -1
100
AcDbLine
 10
-2182.475559734256
 20
67.93525443000098
 11
-2182.475559734256
 21
420.3137802399995
  0
LINE
  5
59F
100
AcDbEntity
  8
Driver
  6
ByLayer
 62
  256
370
   -1
100
AcDbLine
 10
-1216.086458836883
 20
244.1245173350001
 11
-992.0902065082053
 21
244.1245173350001
  0
LINE
  5
5A0
100
AcDbEntity
  8
Driver
  6
ByLayer
 62
  256
370
   -1
100
AcDbLine
 10
-1216.546766743345
 20
-610.1418458525562
 11
-987.4295466308956
 21
-638.7995217667981
  0
ARC
  5
5A1
100
AcDbEntity
  8
Driver
  6
CONTINUOUS
 62
    5
370
    0
100
AcDbCircle
 10
-1090.102562324147
 20
-529.4457296585526
 40
150
100
AcDbArc
 50
313.1952579771026
 51
212.5458338004496
  0
ELLIPSE
  5
5A2
100
AcDbEntity
  8
Driver
  6
ByLayer
 62
  256
370
   -1
100
AcDbEllipse
 10
-1518.4539145054
 20
-751.6372189241972
 30
0
 11
344.7446659852816
 21
63.48987869596375
 31
0
 40
0.3416666666666666
 41
0
 42
6.283185307179586
  0
LINE
  5
5A3
100
AcDbEntity
  8
frame
  6
ByLayer
 62
  256
370
   -1
100
AcDbLine
 10
-1075.000000010455
 20
-872.9100185046104
 11
-1075.000000010455
 21
-590.9048583111737
  0
LINE
  5
5A4
100
AcDbEntity
  8
frame
  6
ByLayer
 62
  256
370
   -1
100
AcDbLine
 10
-1100.000000010455
 20
-873.0733924523022
 11
-1100.000000010455
 21
-588.4526643910683
  0
LINE
  5
5A5
100
AcDbEntity
  8
frame
  6
ByLayer
 62
  256
370
   -1
100
AcDbLine
 10
-1100.000000010455
 20
-736.5098420400003
 11
-1580.49724522
 21
-736.5098420400003
  0
LINE
  5
5A6
100
AcDbEntity
  8
frame
  6
ByLayer
 62
  256
370
   -1
100
AcDbLine
 10
-1100.000000010455
 20
-761.5098420400003
 11
-1580.49724522
 21
-761.5098420400003
  0
CIRCLE
  5
5A7
100
AcDbEntity
  8
frame
  6
ByLayer
 62
  256
370
   -1
100
AcDbCircle
 10
-1087.499994643893
 20
-685.4885119784158
 40
12.5
  0
ARC
  5
5A8
100
AcDbEntity
  8
0
  6
CONTINUOUS
 62
    7
370
   -1
100
AcDbCircle
 10
-2268.64997283
 20
-760.5277640399997
 40
204.16666669
100
AcDbArc
 50
129.0484934217
 51
223.6774958385
  0
ARC
  5
5A9
100
AcDbEntity
  8
0
  6
CONTINUOUS
 62
    7
370
   -1
100
AcDbCircle
 10
-2268.64997283
 20
-760.5277640399997
 40
204.16666669
100
AcDbArc
 50
313.8796175571
 51
61.0496198988
  0
CIRCLE
  5
5AA
100
AcDbEntity
  8
0
  6
CONTINUOUS
 62
    7
370
   -1
100
AcDbCircle
 10
-2270.86387907
 20
-759.0098420400003
 40
200.95144356
  0
CIRCLE
  5
5AB
100
AcDbEntity
  8
0
  6
CONTINUOUS
 62
    7
370
   -1
100
AcDbCircle
 10
-2270.86387907
 20
-759.0098420400003
 40
188.39197832
  0
CIRCLE
  5
5AC
100
AcDbEntity
  8
0
  6
CONTINUOUS
 62
    7
370
   -1
100
AcDbCircle
 10
-2270.86387907
 20
-759.0098420400003
 40
20.09514437
  0
CIRCLE
  5
5AD
100
AcDbEntity
  8
0
  6
CONTINUOUS
 62
    7
370
   -1
100
AcDbCircle
 10
-2270.86387907
 20
-759.0098420400003
 40
7.535679129999999
  0
CIRCLE
  5
5AE
100
AcDbEntity
  8
0
  6
ByLayer
 62
  256
370
   -1
100
AcDbCircle
 10
-992.0458016599998
 20
-759.0098420400003
 40
200.95144356
  0
ARC
  5
5AF
100
AcDbEntity
  8
0
  6
CONTINUOUS
 62
    7
370
   -1
100
AcDbCircle
 10
-992
 20
-759.5356791299999
 40
200.95144356
100
AcDbArc
 50
222.228627251
 51
320.6648180091
  0
ARC
  5
5B0
100
AcDbEntity
  8
0
  6
CONTINUOUS
 62
    7
370
   -1
100
AcDbCircle
 10
-992
 20
-759.5356791299999
 40
200.95144356
100
AcDbArc
 50
41.832030646
 51
119.4932886525
  0
ARC
  5
5B1
100
AcDbEntity
  8
0
  6
CONTINUOUS
 62
    7
370
   -1
100
AcDbCircle
 10
-992
 20
-759.5356791299999
 40
188.39197832
100
AcDbArc
 50
47.8573278052
 51
114.0128547509
  0
ARC
  5
5B2
100
AcDbEntity
  8
0
  6
CONTINUOUS
 62
    7
370
   -1
100
AcDbCircle
 10
-992
 20
-759.5356791299999
 40
188.39197832
100
AcDbArc
 50
225.5442346772
 51
316.9262262691
  0
CIRCLE
  5
5B3
100
AcDbEntity
  8
0
  6
CONTINUOUS
 62
    7
370
   -1
100
AcDbCircle
 10
-992
 20
-759.5356791299999
 40
7.535679129999999
  0
CIRCLE
  5
5B4
100
AcDbEntity
  8
frame
  6
ByLayer
 62
  256
370
   -1
100
AcDbCircle
 10
-992
 20
-759.5356791299999
 40
12.5
  0
CIRCLE
  5
5B5
100
AcDbEntity
  8
frame
  6
ByLayer
 62
  256
370
   -1
100
AcDbCircle
 10
-1293.220067303552
 20
-885.5748279284958
 40
12.5
  0
CIRCLE
  5
5B6
100
AcDbEntity
  8
internals
  6
ByLayer
 62
  256
370
   -1
100
AcDbCircle
 10
-992
 20
-759.5356791299999
 40
65
  0
LINE
  5
5B7
100
AcDbEntity
  8
frame
  6
CONTINUOUS
 62
    7
370
   -1
100
AcDbLine
 10
245.3302521499978
 20
-899.7381502500002
 11
239.9138494799981
 21
-839.2549872300001
  0
LINE
  5
5B8
100
AcDbEntity
  8
frame
  6
CONTINUOUS
 62
    7
370
   -1
100
AcDbLine
 10
245.3302521499978
 20
-844.0563705999998
 11
245.3302521499978
 21
-899.7381502500002
  0
LINE
  5
5B9
100
AcDbEntity
  8
frame
  6
CONTINUOUS
 62
    7
370
   -1
100
AcDbLine
 10
270.4491825599982
 20
-858.0417205100003
 11
270.4491825599982
 21
-899.7381502500002
  0
ARC
  5
5BA
100
AcDbEntity
  8
frame
  6
CONTINUOUS
 62
    7
370
   -1
100
AcDbCircle
 10
257.8897173199981
 20
-899.7381502500002
 40
12.55946524
100
AcDbArc
 50
180
 51
360
  0
LINE
  5
5BB
100
AcDbEntity
  8
frame
  6
CONTINUOUS
 62
    7
370
   -1
100
AcDbLine
 10
778.3504638599993
 20
-858.7113504500003
 11
778.3504638599993
 21
-899.7381502500002
  0
LINE
  5
5BC
100
AcDbEntity
  8
frame
  6
CONTINUOUS
 62
    7
370
   -1
100
AcDbLine
 10
803.4693943399998
 20
-850.0640268000002
 11
803.4693943399998
 21
-899.7381502500002
  0
LINE
  5
5BD
100
AcDbEntity
  8
frame
  6
CONTINUOUS
 62
    7
370
   -1
100
AcDbLine
 10
803.4693943399998
 20
-899.7381502500002
 11
807.7102963199993
 21
-852.3814111000004
  0
ARC
  5
5BE
100
AcDbEntity
  8
frame
  6
CONTINUOUS
 62
    7
370
   -1
100
AcDbCircle
 10
790.9099290999993
 20
-899.7381502500002
 40
12.55946524
100
AcDbArc
 50
180
 51
360
  0
LINE
  5
5BF
100
AcDbEntity
  8
centerOfmass
  6
ByLayer
 62
  256
370
   -1
100
AcDbLine
 10
524.3998232099988
 20
-713.7381502500002
 11
258.2523836024021
 21
-912.2923782343239
  0
LINE
  5
5C0
100
AcDbEntity
  8
centerOfmass
  6
ByLayer
 62
  256
370
   -1
100
AcDbLine
 10
258.2523836024019
 20
-912.292378234324
 11
258.2523836024019
 21
-712.292378234324
  0
DIMENSION
  5
5C1
100
AcDbEntity
  8
centerOfmass
  6
ByLayer
 62
  256
370
   -1
100
AcDbDimension
  2
*D3
 10
524.3998232099988
 20
-713.7381502500002
 30
0
 11
0
 21
0
 31
0
 70
   34
 71
    5
  3
Standard
 53
0
210
0
220
0
230
1
100
AcDb2LineAngularDimension
 13
258.2523836024019
 23
-912.292378234324
 33
0
 14
258.2523836024019
 24
-712.292378234324
 34
0
 15
258.2523836024021
 25
-912.2923782343239
 35
0
 16
330.3634258971282
 26
-775.1633474427653
 36
0
  0
CIRCLE
  5
5C2
100
AcDbEntity
  8
frame
  6
ByLayer
 62
  256
370
   -1
100
AcDbCircle
 10
-2064.870772922232
 20
-885.5248869507991
 40
12.5
  0
CIRCLE
  5
5C3
100
AcDbEntity
  8
frame
  6
ByLayer
 62
  256
370
   -1
100
AcDbCircle
 10
-2377.500000010455
 20
-880.5083100855707
 40
12.5
  0
LINE
  5
5C4
100
AcDbEntity
  8
dimension
  6
ByLayer
 62
  256
370
   -1
100
AcDbLine
 10
-2887.500000010455
 20
-771.6168257086387
 11
-2887.500000010455
 21
-571.6168257086387
  0
LINE
  5
5C5
100
AcDbEntity
  8
dimension
  6
ByLayer
 62
  256
370
   -1
100
AcDbLine
 10
-2887.500000010455
 20
-771.6168257086387
 11
-2887.500000010455
 21
-971.6168257086387
  0
DIMENSION
  5
5C6
100
AcDbEntity
  8
dimension
  6
ByLayer
 62
  256
370
   -1
100
AcDbDimension
  2
*D4
 10
-2270.86387907
 20
-1020
 30
0
 11
-2579.181939540227
 21
-1014.375
 31
0
 70
   33
 71
    5
  3
Standard
 53
0
210
0
220
0
230
1
100
AcDbAlignedDimension
 13
-2887.500000010455
 23
-771.6168257086387
 33
0
 14
-2270.86387907
 24
-771.6168257086387
 34
0
  0
DIMENSION
  5
5C7
100
AcDbEntity
  8
dimension
  6
ByLayer
 62
  256
370
   -1
100
AcDbDimension
  2
*D5
 10
-2377.500000010455
 20
-980
 30
0
 11
-2632.500000010455
 21
-974.375
 31
0
 70
   32
 71
    5
  3
Standard
 53
0
210
0
220
0
230
1
100
AcDbAlignedDimension
 13
-2887.500000010455
 23
-871.6168257086387
 33
0
 14
-2377.500000010455
 24
-880.5083100855707
 34
0
100
AcDbRotatedDimension
  0
DIMENSION
  5
5C8
100
AcDbEntity
  8
dimension
  6
ByLayer
 62
  256
370
   -1
100
AcDbDimension
  2
*D6
 10
-2107.402994822291
 20
-1160
 30
0
 11
-2497.451497416373
 21
-1154.375
 31
0
 70
   32
 71
    5
  3
Standard
 53
0
210
0
220
0
230
1
100
AcDbAlignedDimension
 13
-2887.500000010455
 23
-932.107363026052
 33
0
 14
-2107.402994822291
 24
-835.2301291786223
 34
0
100
AcDbRotatedDimension
  0
DIMENSION
  5
5C9
100
AcDbEntity
  8
dimension
  6
ByLayer
 62
  256
370
   -1
100
AcDbDimension
  2
*D7
 10
-2064.870772922232
 20
-1240.701785536632
 30
0
 11
-2476.185386466344
 21
-1235.076785536632
 31
0
 70
   32
 71
    5
  3
Standard
 53
0
210
0
220
0
230
1
100
AcDbAlignedDimension
 13
-2887.500000010455
 23
-1087.31567278476
 33
0
 14
-2064.870772922232
 24
-885.5248869507991
 34
0
100
AcDbRotatedDimension
  0
LINE
  5
5CA
100
AcDbEntity
  8
frame
  6
ByLayer
 62
  256
370
   -1
100
AcDbLine
 10
-1855.000000010455
 20
-873.2200417800001
 11
-1855.000000010455
 21
-580.9917683764431
  0
LINE
  5
5CB
100
AcDbEntity
  8
frame
  6
ByLayer
 62
  256
370
   -1
100
AcDbLine
 10
-1880.000000010455
 20
-873.2200417800001
 11
-1880.000000010455
 21
-581.9755170087269
  0
LINE
  5
5CC
100
AcDbEntity
  8
frame
  6
ByLayer
 62
  256
370
   -1
100
AcDbLine
 10
-1755.49724522
 20
-736.5098420400003
 11
-1855.000000010455
 21
-736.5098420400003
  0
LINE
  5
5CD
100
AcDbEntity
  8
frame
  6
ByLayer
 62
  256
370
   -1
100
AcDbLine
 10
-1755.49724522
 20
-761.5098420400003
 11
-1855.000000010455
 21
-761.5098420400003
  0
LINE
  5
5CE
100
AcDbEntity
  8
dimension
  6
ByLayer
 62
  256
370
   -1
100
AcDbLine
 10
-1855.000000010455
 20
-761.5098420400003
 11
-1880.000000010455
 21
-761.5098420400003
  0
LINE
  5
5CF
100
AcDbEntity
  8
dimensionFromMid
  6
ByLayer
 62
  256
370
   -1
100
AcDbLine
 10
-1867.500000010455
 20
-761.5098420400003
 11
-1867.500000010455
 21
-1161.50984204
  0
LINE
  5
5D0
100
AcDbEntity
  8
dimensionFromMid
  6
ByLayer
 62
  256
370
   -1
100
AcDbLine
 10
-1867.500000010455
 20
-761.5098420400003
 11
-1867.500000010455
 21
-361.5098420400003
  0
DIMENSION
  5
5D1
100
AcDbEntity
  8
dimensionFromMid
  6
ByLayer
 62
  256
370
   -1
100
AcDbDimension
  2
*D8
 10
-2064.870772922232
 20
-1063.380086243716
 30
0
 11
-1966.185386466343
 21
-1057.755086243716
 31
0
 70
   32
 71
    5
  3
Standard
 53
0
210
0
220
0
230
1
100
AcDbAlignedDimension
 13
-1867.500000010455
 23
-961.5098420400004
 33
0
 14
-2064.870772922232
 24
-885.5248869507991
 34
0
100
AcDbRotatedDimension
  0
DIMENSION
  5
5D2
100
AcDbEntity
  8
dimensionFromMid
  6
ByLayer
 62
  256
370
   -1
100
AcDbDimension
  2
*D9
 10
-2107.402994822291
 20
-1099.749487657228
 30
0
 11
-1987.451497416373
 21
-1094.124487657228
 31
0
 70
   32
 71
    5
  3
Standard
 53
0
210
0
220
0
230
1
100
AcDbAlignedDimension
 13
-1867.500000010455
 23
-961.5098420400004
 33
0
 14
-2107.402994822291
 24
-835.2301291786223
 34
0
100
AcDbRotatedDimension
  0
DIMENSION
  5
5D3
100
AcDbEntity
  8
dimensionFromMid
  6
ByLayer
 62
  256
370
   -1
100
AcDbDimension
  2
*D10
 10
-2071.011245342429
 20
-504.5375444029302
 30
0
 11
-1969.255622676442
 21
-498.9125444029302
 31
0
 70
   32
 71
    5
  3
Standard
 53
0
210
0
220
0
230
1
100
AcDbAlignedDimension
 13
-1867.500000010455
 23
-484.4900277008452
 33
0
 14
-2071.011245342429
 24
-578.5523688452172
 34
0
100
AcDbRotatedDimension
  0
DIMENSION
  5
5D4
100
AcDbEntity
  8
dimensionFromMid
  6
ByLayer
 62
  256
370
   -1
100
AcDbDimension
  2
*D11
 10
-2270.86387907
 20
-480.2025053318117
 30
0
 11
-2069.181939540227
 21
-474.5775053318117
 31
0
 70
   32
 71
    5
  3
Standard
 53
0
210
0
220
0
230
1
100
AcDbAlignedDimension
 13
-1867.500000010455
 23
-461.9805352634171
 33
0
 14
-2270.86387907
 24
-759.0098420400003
 34
0
100
AcDbRotatedDimension
  0
DIMENSION
  5
5D5
100
AcDbEntity
  8
dimensionFromMid
  6
ByLayer
 62
  256
370
   -1
100
AcDbDimension
  2
*D12
 10
-2399.792455072128
 20
-455.549251709866
 30
0
 11
-2133.646227541291
 21
-449.924251709866
 31
0
 70
   32
 71
    5
  3
Standard
 53
0
210
0
220
0
230
1
100
AcDbAlignedDimension
 13
-1867.500000010455
 23
-423.3928339421108
 33
0
 14
-2399.792455072128
 24
-605.0551567165567
 34
0
100
AcDbRotatedDimension
  0
DIMENSION
  5
5D6
100
AcDbEntity
  8
dimensionFromMid
  6
ByLayer
 62
  256
370
   -1
100
AcDbDimension
  2
*D13
 10
-1867.500000010455
 20
-1099.74948765723
 30
0
 11
-1580.360033657003
 21
-1094.12448765723
 31
0
 70
   32
 71
    5
  3
Standard
 53
0
210
0
220
0
230
1
100
AcDbAlignedDimension
 13
-1293.220067303552
 23
-885.5748279284958
 33
0
 14
-1867.500000010455
 24
-958.2612494791071
 34
0
100
AcDbRotatedDimension
  0
DIMENSION
  5
5D7
100
AcDbEntity
  8
dimensionFromMid
  6
ByLayer
 62
  256
370
   -1
100
AcDbDimension
  2
*D14
 10
-1087.499994643893
 20
-1174.781129115326
 30
0
 11
-1477.499997327174
 21
-1169.156129115326
 31
0
 70
   32
 71
    5
  3
Standard
 53
0
210
0
220
0
230
1
100
AcDbAlignedDimension
 13
-1867.500000010455
 23
-1002.208353761706
 33
0
 14
-1087.499994643893
 24
-685.4885119784158
 34
0
100
AcDbRotatedDimension
  0
DIMENSION
  5
5D8
100
AcDbEntity
  8
dimensionFromMid
  6
ByLayer
 62
  256
370
   -1
100
AcDbDimension
  2
*D15
 10
-992
 20
-1231.322830356963
 30
0
 11
-1429.750000005227
 21
-1225.697830356963
 31
0
 70
   32
 71
    5
  3
Standard
 53
0
210
0
220
0
230
1
100
AcDbAlignedDimension
 13
-1867.500000010455
 23
-957.9932793310428
 33
0
 14
-992
 24
-759.5356791299999
 34
0
100
AcDbRotatedDimension
  0
DIMENSION
  5
5D9
100
AcDbEntity
  8
dimensionFromMid
  6
ByLayer
 62
  256
370
   -1
100
AcDbDimension
  2
*D16
 10
-908.539198822246
 20
-216.0509318771063
 30
0
 11
-1388.01959941635
 21
-210.4259318771063
 31
0
 70
   32
 71
    5
  3
Standard
 53
0
210
0
220
0
230
1
100
AcDbAlignedDimension
 13
-1867.500000010455
 23
-420.3781697763851
 33
0
 14
-908.539198822246
 24
-466.855720546444
 34
0
100
AcDbRotatedDimension
  0
DIMENSION
  5
5DA
100
AcDbEntity
  8
dimensionFromMid
  6
ByLayer
 62
  256
370
   -1
100
AcDbDimension
  2
*D17
 10
-620.7331509199998
 20
-154.9202418498633
 30
0
 11
-1244.116575465227
 21
-149.2952418498633
 31
0
 70
   32
 71
    5
  3
Standard
 53
0
210
0
220
0
230
1
100
AcDbAlignedDimension
 13
-1867.500000010455
 23
-416.609839569227
 33
0
 14
-620.7331509199998
 24
-678.5614842575801
 34
0
100
AcDbRotatedDimension
  0
DIMENSION
  5
5DB
100
AcDbEntity
  8
dimensionFromMid
  6
ByLayer
 62
  256
370
   -1
100
AcDbDimension
  2
*D18
 10
-1019.916241412533
 20
-1200.506263329536
 30
0
 11
-1443.708120711494
 21
-1194.881263329536
 31
0
 70
   32
 71
    5
  3
Standard
 53
0
210
0
220
0
230
1
100
AcDbAlignedDimension
 13
-1867.500000010455
 23
-975.5788202977878
 33
0
 14
-1019.916241412533
 24
-885.0260250652608
 34
0
100
AcDbRotatedDimension
  0
DIMENSION
  5
5DC
100
AcDbEntity
  8
dimensionFromMid
  6
ByLayer
 62
  256
370
   -1
100
AcDbDimension
  2
*D19
 10
-620.7331509199998
 20
-1261.134509329158
 30
0
 11
-1244.116575465227
 21
-1255.509509329158
 31
0
 70
   32
 71
    5
  3
Standard
 53
0
210
0
220
0
230
1
100
AcDbAlignedDimension
 13
-1867.500000010455
 23
-966.3673464580667
 33
0
 14
-620.7331509199998
 24
-871.6785866413296
 34
0
100
AcDbRotatedDimension
  0
DIMENSION
  5
5DD
100
AcDbEntity
  8
dimensionFromMid
  6
ByLayer
 62
  256
370
   -1
100
AcDbDimension
  2
*D20
 10
-1867.500000010455
 20
-1126.814472611765
 30
0
 11
-2122.500000010455
 21
-1121.189472611765
 31
0
 70
   32
 71
    5
  3
Standard
 53
0
210
0
220
0
230
1
100
AcDbAlignedDimension
 13
-2377.500000010455
 23
-880.5083100855707
 33
0
 14
-1867.500000010455
 24
-955.3135778504028
 34
0
100
AcDbRotatedDimension
  0
DIMENSION
  5
5DE
100
AcDbEntity
  8
dimensionFromMid
  6
ByLayer
 62
  256
370
   -1
100
AcDbDimension
  2
*D21
 10
-1867.500000010455
 20
-1152.271636677905
 30
0
 11
-2377.500000010455
 21
-1146.646636677905
 31
0
 70
   32
 71
    5
  3
Standard
 53
0
210
0
220
0
230
1
100
AcDbAlignedDimension
 13
-2887.500000010455
 23
-820.9252826267716
 33
0
 14
-1867.500000010455
 24
-968.7120852536342
 34
0
100
AcDbRotatedDimension
  0
DIMENSION
  5
5DF
100
AcDbEntity
  8
dimensionFromMid
  6
ByLayer
 62
  256
370
   -1
100
AcDbDimension
  2
*D22
 10
44.215074430664
 20
-897.3817941004527
 30
0
 11
38.59007443066402
 21
-581.2782571998027
 31
0
 70
   32
 71
    5
  3
Standard
 53
0
210
0
220
0
230
1
100
AcDbAlignedDimension
 13
-868.2232797293992
 23
-265.1747202991526
 33
0
 14
-1000.062970743074
 24
-897.3817941004527
 34
0
 50
90
100
AcDbRotatedDimension
  0
DIMENSION
  5
5E0
100
AcDbEntity
  8
dimensionFromMid
  6
ByLayer
 62
  256
370
   -1
100
AcDbDimension
  2
*D23
 10
-911.3087539729863
 20
-359.0799984066042
 30
0
 11
-1389.40437699172
 21
-353.4549984066042
 31
0
 70
   32
 71
    5
  3
Standard
 53
0
210
0
220
0
230
1
100
AcDbAlignedDimension
 13
-1867.500000010455
 23
-370.13376701427
 33
0
 14
-911.3087539729863
 24
-604.7314622204281
 34
0
100
AcDbRotatedDimension
  0
POINT
  5
5E1
100
AcDbEntity
  8
0
  6
ByLayer
 62
  256
370
   -1
100
AcDbPoint
 10
-608.2331509199998
 20
-717.1783524594572
  0
SPLINE
  5
5E2
100
AcDbEntity
  8
0
  6
CONTINUOUS
 62
    7
370
   -1
100
AcDbSpline
210
0
220
0
230
0
 70
    8
 71
    3
 72
    9
 73
    5
 74
    0
 42
1e-07
 43
1e-07
 40
0
 40
0
 40
0
 40
0
 40
0.5
 40
1
 40
1
 40
1
 40
1
 10
-1379.41214475
 20
-1237.81122906
 30
0
 10
-1505.80958557
 20
-1253.61077604
 30
0
 10
-1699.67550873
 20
-1268.24039692
 30
0
 10
-1893.89107433
 20
-1279.13322033
 30
0
 10
-1961.04003733
 20
-1282.08309768
 30
0
  0
SPLINE
  5
5E3
100
AcDbEntity
  8
0
  6
CONTINUOUS
 62
    7
370
   -1
100
AcDbSpline
210
0
220
0
230
0
 70
    8
 71
    3
 72
    9
 73
    5
 74
    0
 42
1e-07
 43
1e-07
 40
0
 40
0
 40
0
 40
0
 40
0.5
 40
1
 40
1
 40
1
 40
1
 10
-1531.60969382
 20
-1205.48971424
 30
0
 10
-1565.78914094
 20
-1208.42208858
 30
0
 10
-1706.987321
 20
-1219.23354826
 30
0
 10
-1848.39060253
 20
-1227.32472506
 30
0
 10
-1955.59665085
 20
-1231.89364312
 30
0
  0
SPLINE
  5
5E4
100
AcDbEntity
  8
0
  6
CONTINUOUS
 62
    7
370
   -1
100
AcDbSpline
210
0
220
0
230
0
 70
    8
 71
    3
 72
    9
 73
    5
 74
    0
 42
1e-07
 43
1e-07
 40
0
 40
0
 40
0
 40
0
 40
0.5
 40
1
 40
1
 40
1
 40
1
 10
-1531.60969382
 20
-1205.48971424
 30
0
 10
-1564.84652598
 20
-1190.87793615
 30
0
 10
-1702.95287723
 20
-1134.6995219
 30
0
 10
-1846.15964625
 20
-1091.60950997
 30
0
 10
-1955.59665085
 20
-1064.54296732
 30
0
  0
SPLINE
  5
5E5
100
AcDbEntity
  8
0
  6
CONTINUOUS
 62
    7
370
   -1
100
AcDbSpline
210
0
220
0
230
0
 70
    8
 71
    3
 72
    9
 73
    5
 74
    0
 42
1e-07
 43
1e-07
 40
0
 40
0
 40
0
 40
0
 40
0.5
 40
1
 40
1
 40
1
 40
1
 10
-1384.4949984
 20
-1235.04967495
 30
0
 10
-1406.10896252
 20
-1228.36331989
 30
0
 10
-1455.4576986
 20
-1219.19865655
 30
0
 10
-1504.57952744
 20
-1210.01203736
 30
0
 10
-1531.60979504
 20
-1205.48971424
 30
0
  0
DIMENSION
  5
5E6
100
AcDbEntity
  8
0
  6
ByLayer
 62
  256
370
   -1
100
AcDbDimension
  2
*D24
 10
-609.2235899912957
 20
-990.161880588818
 30
0
 11
-398.3713209332745
 21
-983.3688033101736
 31
0
 70
   33
 71
    5
  3
Standard
 53
0
210
0
220
0
230
1
100
AcDbAlignedDimension
 13
-188.2331448077718
 23
-847.6636728450325
 33
0
 14
-610
 24
-850
 34
0
  0
LINE
  5
5E7
100
AcDbEntity
  8
0
  6
ByLayer
 62
  256
370
   -1
100
AcDbLine
 10
-1799.52141314
 20
-1236.92689162
 11
-1799.52141314
 21
-1058.867762420502
  0
SPLINE
  5
5E8
100
AcDbEntity
  8
0
  6
CONTINUOUS
 62
    7
370
   -1
100
AcDbSpline
210
0
220
0
230
0
 70
    8
 71
    3
 72
    9
 73
    5
 74
    0
 42
1e-07
 43
1e-07
 40
0
 40
0
 40
0
 40
0
 40
0.5
 40
1
 40
1
 40
1
 40
1
 10
-1379.52141314
 20
-1236.92689162
 30
0
 10
-1525.58011439
 20
-1153.47899569
 30
0
 10
-1716.82603471
 20
-1079.80680101
 30
0
 10
-1914.21581051
 20
-1025.19900518
 30
0
 10
-1950.83255382
 20
-1015.86261308
 30
0
  0
LINE
  5
5E9
100
AcDbEntity
  8
0
  6
ByLayer
 62
  256
370
   -1
100
AcDbLine
 10
-1799.52141314
 20
-1236.92689162
 11
-1799.52141314
 21
-1273.545114398751
  0
SPLINE
  5
5EA
100
AcDbEntity
  8
0
  6
CONTINUOUS
 62
    7
370
   -1
100
AcDbSpline
210
0
220
0
230
0
 70
    8
 71
    3
 72
    9
 73
    5
 74
    0
 42
1e-07
 43
1e-07
 40
0
 40
0
 40
0
 40
0
 40
0.5
 40
1
 40
1
 40
1
 40
1
 10
-1928.05562132
 20
-1280.57006077
 30
0
 10
-1871.90963016
 20
-1277.88833249
 30
0
 10
-1693.24105385
 20
-1267.67189199
 30
0
 10
-1514.86844293
 20
-1254.29232656
 30
0
 10
-1392.95197336
 20
-1239.47987436
 30
0
  0
POINT
  5
5EB
100
AcDbEntity
  8
dimensionFromMid
  6
ByLayer
 62
  256
370
   -1
100
AcDbPoint
 10
-1695.365708271515
 20
-1966.036718626744
  0
POINT
  5
5EC
100
AcDbEntity
  8
dimensionFromMid
  6
ByLayer
 62
  256
370
   -1
100
AcDbPoint
 10
-2366.797671943402
 20
-1487.641444510525
  0
LINE
  5
5ED
100
AcDbEntity
  8
0
  6
CONTINUOUS
 62
    7
370
   -1
100
AcDbLine
 10
-1399.16901578
 20
-1644.256791380001
 11
-1399.16901508
 21
-1697.89316564
  0
SPLINE
  5
5EE
100
AcDbEntity
  8
0
  6
CONTINUOUS
 62
    7
370
   -1
100
AcDbSpline
210
0
220
0
230
0
 70
    8
 71
    3
 72
    8
 73
    4
 74
    0
 42
1e-07
 43
1e-07
 40
0
 40
0
 40
0
 40
0
 40
1
 40
1
 40
1
 40
1
 10
-1399.16901578
 20
-1644.256791380001
 30
0
 10
-1399.16902173
 20
-1640.46327144
 30
0
 10
-1399.31246097
 20
-1636.433702890001
 30
0
 10
-1400.96437214
 20
-1633.018738330001
 30
0
  0
SPLINE
  5
5EF
100
AcDbEntity
  8
0
  6
CONTINUOUS
 62
    7
370
   -1
100
AcDbSpline
210
0
220
0
230
0
 70
    8
 71
    3
 72
    8
 73
    4
 74
    0
 42
1e-07
 43
1e-07
 40
0
 40
0
 40
0
 40
0
 40
1
 40
1
 40
1
 40
1
 10
-1400.45727863
 20
-1709.4564186
 30
0
 10
-1399.666608890001
 20
-1705.73785025
 30
0
 10
-1398.81441447
 20
-1701.766109470001
 30
0
 10
-1399.72430156
 20
-1698.074901740001
 30
0
  0
SPLINE
  5
5F0
100
AcDbEntity
  8
0
  6
CONTINUOUS
 62
    7
370
   -1
100
AcDbSpline
210
0
220
0
230
0
 70
    8
 71
    3
 72
    9
 73
    5
 74
    0
 42
1e-07
 43
1e-07
 40
0
 40
0
 40
0
 40
0
 40
0.5
 40
1
 40
1
 40
1
 40
1
 10
-1552.54555931
 20
-1829.52866124
 30
0
 10
-1616.8217228
 20
-1857.936607870001
 30
0
 10
-1755.51778002
 20
-1909.547879820001
 30
0
 10
-1900
 20
-1942.1499755
 30
0
 10
-1976.532516340001
 20
-1953.93872373
 30
0
  0
SPLINE
  5
5F1
100
AcDbEntity
  8
0
  6
CONTINUOUS
 62
    7
370
   -1
100
AcDbSpline
210
0
220
0
230
0
 70
    8
 71
    3
 72
    9
 73
    5
 74
    0
 42
1e-07
 43
1e-07
 40
0
 40
0
 40
0
 40
0
 40
0.5
 40
1
 40
1
 40
1
 40
1
 10
-1976.532516340001
 20
-1388.21125184
 30
0
 10
-1900
 20
-1400
 30
0
 10
-1755.51778002
 20
-1432.602095680001
 30
0
 10
-1616.8217228
 20
-1484.21336763
 30
0
 10
-1552.54555931
 20
-1512.621314260001
 30
0
  0
SPLINE
  5
5F2
100
AcDbEntity
  8
0
  6
CONTINUOUS
 62
    7
370
   -1
100
AcDbSpline
210
0
220
0
230
0
 70
    8
 71
    3
 72
   11
 73
    7
 74
    0
 42
1e-07
 43
1e-07
 40
0
 40
0
 40
0
 40
0
 40
0.25
 40
0.5
 40
0.75
 40
1
 40
1
 40
1
 40
1
 10
-1400.45728003
 20
-1709.4564186
 30
0
 10
-1402.175107120001
 20
-1717.535465380001
 30
0
 10
-1410.98895223
 20
-1732.20830727
 30
0
 10
-1432.94769708
 20
-1756.665884120001
 30
0
 10
-1478.52339403
 20
-1792.714152880001
 30
0
 10
-1522.38876047
 20
-1816.20099563
 30
0
 10
-1552.54566053
 20
-1829.52843227
 30
0
  0
SPLINE
  5
5F3
100
AcDbEntity
  8
0
  6
CONTINUOUS
 62
    7
370
   -1
100
AcDbSpline
210
0
220
0
230
0
 70
    8
 71
    3
 72
   11
 73
    7
 74
    0
 42
1e-07
 43
1e-07
 40
0
 40
0
 40
0
 40
0
 40
0.25
 40
0.5
 40
0.75
 40
1
 40
1
 40
1
 40
1
 10
-1552.54519496
 20
-1512.62048973
 30
0
 10
-1522.38837582
 20
-1525.9482497
 30
0
 10
-1478.52317045
 20
-1549.43554521
 30
0
 10
-1432.94765004
 20
-1585.484139540001
 30
0
 10
-1410.98893886
 20
-1609.941785200001
 30
0
 10
-1402.17513575
 20
-1624.614650120001
 30
0
 10
-1400.45730754
 20
-1632.69369956
 30
0
  0
SPLINE
  5
5F4
100
AcDbEntity
  8
0
  6
CONTINUOUS
 62
    7
370
   -1
100
AcDbSpline
210
0
220
0
230
0
 70
    8
 71
    3
 72
    9
 73
    5
 74
    0
 42
1e-07
 43
1e-07
 40
0
 40
0
 40
0
 40
0
 40
0.5
 40
1
 40
1
 40
1
 40
1
 10
-1400.4572976
 20
-1632.69369956
 30
0
 10
-1443.276197780001
 20
-1609.05059588
 30
0
 10
-1624.14967973
 20
-1519.49553308
 30
0
 10
-1820.63186738
 20
-1460.726584380001
 30
0
 10
-1971.76841931
 20
-1437.863515550001
 30
0
  0
SPLINE
  5
5F5
100
AcDbEntity
  8
0
  6
CONTINUOUS
 62
    7
370
   -1
100
AcDbSpline
210
0
220
0
230
0
 70
    8
 71
    3
 72
    9
 73
    5
 74
    0
 42
1e-07
 43
1e-07
 40
0
 40
0
 40
0
 40
0
 40
0.5
 40
1
 40
1
 40
1
 40
1
 10
-1400.45727863
 20
-1709.4564186
 30
0
 10
-1443.276250840001
 20
-1733.09969609
 30
0
 10
-1624.14988266
 20
-1822.65448911
 30
0
 10
-1820.63202607
 20
-1881.42336865
 30
0
 10
-1971.76841931
 20
-1904.286459950001
 30
0
  0
LINE
  5
5F6
100
AcDbEntity
  8
frame
  6
ByLayer
 62
  256
370
   -1
100
AcDbLine
 10
-1820.380886979955
 20
-1419.885683300001
 11
-1820.380886979955
 21
-1671.074946205
  0
LINE
  5
5F7
100
AcDbEntity
  8
frame
  6
ByLayer
 62
  256
370
   -1
100
AcDbLine
 10
-1820.380886979955
 20
-1922.264209110002
 11
-1820.380886979955
 21
-1671.074946205
  0
DIMENSION
  5
5F8
100
AcDbEntity
  8
0
  6
ByLayer
 62
  256
370
   -1
100
AcDbDimension
  2
*D25
 10
-2150
 20
-1922.264209110002
 30
0
 11
-2155.625
 21
-1671.074946205001
 31
0
 70
   33
 71
    5
 72
    0
  3
Standard
 53
0
210
0
220
0
230
1
100
AcDbAlignedDimension
 13
-1820.380886979955
 23
-1419.885683300001
 33
0
 14
-1820.380886979955
 24
-1922.264209110002
 34
0
  0
DIMENSION
  5
5F9
100
AcDbEntity
  8
0
  6
ByLayer
 62
  256
370
   -1
100
AcDbDimension
  2
*D26
 10
-1955.59665085
 20
-1273.545114398751
 30
0
 11
-1961.22165085
 21
-1166.206438409626
 31
0
 70
   33
 71
    5
 72
    0
  3
Standard
 53
0
210
0
220
0
230
1
100
AcDbAlignedDimension
 13
-1799.52141314
 23
-1058.867762420502
 33
0
 14
-1799.52141314
 24
-1273.545114398751
 34
0
  0
DIMENSION
  5
5FA
100
AcDbEntity
  8
0
  6
ByLayer
 62
  256
370
   -1
100
AcDbDimension
  2
*D27
 10
-1399.169040657028
 20
-2000.000023292952
 30
0
 11
-1609.774976237682
 21
-1994.375007140452
 31
0
 70
   33
 71
    5
 72
    0
  3
Standard
 53
0
210
0
220
0
230
1
100
AcDbAlignedDimension
 13
-1820.380886979955
 23
-1671.074946205
 33
0
 14
-1399.16901543
 24
-1671.074978510001
 34
0
  0
DIMENSION
  5
5FB
100
AcDbEntity
  8
0
  6
ByLayer
 62
  256
370
   -1
100
AcDbDimension
  2
*D28
 10
-1799.322405243884
 20
-1370.204636764506
 30
0
 11
-1589.057750147012
 21
-1363.485327462213
 31
0
 70
   33
 71
    5
 72
    0
  3
Standard
 53
0
210
0
220
0
230
1
100
AcDbAlignedDimension
 13
-1379.41214475
 23
-1237.81122906
 33
0
 14
-1800
 24
-1240
 34
0
  0
LINE
  5
5FC
100
AcDbEntity
  8
frame
  6
ByLayer
 62
  256
370
   -1
100
AcDbLine
 10
-1799.5
 20
-1107.370141581454
 11
-1531.148196462005
 21
-1204.725679609192
  0
LINE
  5
5FD
100
AcDbEntity
  8
frame
  6
ByLayer
 62
  256
370
   -1
100
AcDbLine
 10
-1799.5
 20
-1054.181395348837
 11
-1411.626394162488
 21
-1194.89833142012
  0
LINE
  5
5FE
100
AcDbEntity
  8
frame
  6
ByLayer
 62
  256
370
   -1
100
AcDbLine
 10
-1799.5
 20
-1276.958888888889
 11
-1303.810348647364
 21
-1236.202184222117
  0
LINE
  5
5FF
100
AcDbEntity
  8
frame
  6
ByLayer
 62
  256
370
   -1
100
AcDbLine
 10
-1411.626394162488
 20
-1194.89833142012
 11
-1303.810348647364
 21
-1236.202184222117
  0
LINE
  5
600
100
AcDbEntity
  8
frame
  6
ByLayer
 62
  256
370
   -1
100
AcDbLine
 10
-1799.5
 20
-1226.790161233427
 11
-1531.148196462005
 21
-1204.725679609192
  0
LINE
  5
601
100
AcDbEntity
  8
frame
  6
ByLayer
 62
  256
370
   -1
100
AcDbLine
 10
-1531.148196462005
 20
-1204.725679609192
 11
-1411.626394162488
 21
-1194.89833142012
  0
LINE
  5
602
100
AcDbEntity
  8
frame
  6
ByLayer
 62
  256
370
   -1
100
AcDbLine
 10
-1799.5
 20
-1054.181395348837
 11
-1799.5
 21
-1107.370141581454
  0
LINE
  5
603
100
AcDbEntity
  8
frame
  6
ByLayer
 62
  256
370
   -1
100
AcDbLine
 10
-1799.5
 20
-1107.370141581454
 11
-1799.5
 21
-1226.790161233427
  0
LINE
  5
604
100
AcDbEntity
  8
frame
  6
ByLayer
 62
  256
370
   -1
100
AcDbLine
 10
-1799.5
 20
-1226.790161233427
 11
-1799.5
 21
-1276.958888888889
  0
LINE
  5
605
100
AcDbEntity
  8
frame
  6
ByLayer
 62
  256
370
   -1
100
AcDbLine
 10
-2368.351803537995
 20
-1102.644461972262
 11
-2100
 21
-1200
  0
LINE
  5
606
100
AcDbEntity
  8
frame
  6
ByLayer
 62
  256
370
   -1
100
AcDbLine
 10
-2368.351803537995
 20
-1222.064481624235
 11
-2100
 21
-1200
  0
LINE
  5
607
100
AcDbEntity
  8
frame
  6
ByLayer
 62
  256
370
   -1
100
AcDbLine
 10
-2368.351803537995
 20
-1102.644461972262
 11
-2368.351803537995
 21
-1222.064481624235
  0
DIMENSION
  5
608
100
AcDbEntity
  8
frame
  6
ByLayer
 62
  256
370
   -1
100
AcDbDimension
  2
*D29
 10
-1403.111989375549
 20
-1171.429138738173
 30
0
 11
-1595.130437549211
 21
-1095.782898007722
 31
0
 70
   33
 71
    5
 72
    0
  3
Standard
 53
0
210
0
220
0
230
1
100
AcDbAlignedDimension
 13
-1799.5
 23
-1054.181395348837
 33
0
 14
-1411.626394162488
 24
-1194.89833142012
 34
0
  0
DIMENSION
  5
609
100
AcDbEntity
  8
frame
  6
ByLayer
 62
  256
370
   -1
100
AcDbDimension
  2
*D30
 10
-1299.917407592079
 20
-1283.548764624238
 30
0
 11
-1548.223177786639
 21
-1298.321034978995
 31
0
 70
   33
 71
    5
 72
    0
  3
Standard
 53
0
210
0
220
0
230
1
100
AcDbAlignedDimension
 13
-1799.5
 23
-1276.958888888889
 33
0
 14
-1303.810348647364
 24
-1236.202184222117
 34
0
  0
DIMENSION
  5
60A
100
AcDbEntity
  8
frame
  6
ByLayer
 62
  256
370
   -1
100
AcDbDimension
  2
*D31
 10
-2091.798734443404
 20
-1177.393947504253
 30
0
 11
-2224.056281467307
 21
-1123.428405795575
 31
0
 70
   33
 71
    5
 72
    0
  3
Standard
 53
0
210
0
220
0
230
1
100
AcDbAlignedDimension
 13
-2368.351803537995
 23
-1102.644461972262
 33
0
 14
-2100
 24
-1200
 34
0
  0
DIMENSION
  5
60B
100
AcDbEntity
  8
frame
  6
ByLayer
 62
  256
370
   -1
100
AcDbDimension
  2
*D32
 10
-2097.126726095657
 20
-1234.051416726111
 30
0
 11
-2231.789620471897
 21
-1239.542418403928
 31
0
 70
   33
 71
    5
 72
    0
  3
Standard
 53
0
210
0
220
0
230
1
100
AcDbAlignedDimension
 13
-2368.351803537995
 23
-1222.064481624235
 33
0
 14
-2099.953106884009
 24
-1199.870743334127
 34
0
  0
DIMENSION
  5
60C
100
AcDbEntity
  8
frame
  6
ByLayer
 62
  256
370
   -1
100
AcDbDimension
  2
*D33
 10
-2379.992209173942
 20
-1222.202618243788
 30
0
 11
-2385.622874711503
 21
-1162.424625374221
 31
0
 70
   33
 71
    5
 72
    0
  3
Standard
 53
0
210
0
220
0
230
1
100
AcDbAlignedDimension
 13
-2368.351803537995
 23
-1102.644461972262
 33
0
 14
-2368.340472412347
 24
-1222.201513940101
 34
0
  0
LINE
  5
60D
100
AcDbEntity
  8
frame_rr10
  6
ByLayer
 62
  256
370
   -1
100
AcDbLine
 10
-2066.647870462811
 20
67.84047117610828
 11
-1916.647870462811
 21
17.84047117871995
  0
LINE
  5
60E
100
AcDbEntity
  8
frame_rr10
  6
ByLayer
 62
  256
370
   -1
100
AcDbLine
 10
-2066.647870462811
 20
42.8404711756852
 11
-1916.647870462811
 21
-7.159528821280048
  0
LINE
  5
60F
100
AcDbEntity
  8
frame_rr10
  6
ByLayer
 62
  256
370
   -1
100
AcDbLine
 10
-2066.647870462811
 20
417.865077481022
 11
-1916.647870462811
 21
467.86507747792
  0
LINE
  5
610
100
AcDbEntity
  8
frame_rr10
  6
ByLayer
 62
  256
370
   -1
100
AcDbLine
 10
-1916.647870462811
 20
492.8507695632961
 11
-2066.647870462811
 21
442.8650774815244
  0
LINE
  5
611
100
AcDbEntity
  8
frame_rr10
  6
ByLayer
 62
  256
370
   -1
100
AcDbLine
 10
-1916.647870462811
 20
492.8507695632961
 11
-1668.595714452011
 21
492.86507747792
  0
LINE
  5
612
100
AcDbEntity
  8
frame_rr10
  6
ByLayer
 62
  256
370
   -1
100
AcDbLine
 10
-1668.595714452011
 20
467.86507747792
 11
-1916.647870462811
 21
467.86507747792
  0
LINE
  5
613
100
AcDbEntity
  8
frame_rr10
  6
ByLayer
 62
  256
370
   -1
100
AcDbLine
 10
-1916.647870462811
 20
17.84047117871995
 11
-1668.595714430011
 21
17.84047117871995
  0
LINE
  5
614
100
AcDbEntity
  8
frame_rr10
  6
ByLayer
 62
  256
370
   -1
100
AcDbLine
 10
-1668.595714430011
 20
-7.159528821280048
 11
-1916.647870462811
 21
-7.159528821280048
  0
LINE
  5
615
100
AcDbEntity
  8
frame_rr10
  6
ByLayer
 62
  256
370
   -1
100
AcDbLine
 10
-2791.647870462811
 20
442.8650774890145
 11
-2066.647870462811
 21
442.8650774815244
  0
LINE
  5
616
100
AcDbEntity
  8
frame_rr10
  6
ByLayer
 62
  256
370
   -1
100
AcDbLine
 10
-2791.647870462811
 20
417.8650774889713
 11
-2066.647870462811
 21
417.865077481022
  0
LINE
  5
617
100
AcDbEntity
  8
frame_rr10
  6
ByLayer
 62
  256
370
   -1
100
AcDbLine
 10
-2791.647870462811
 20
67.84047116943725
 11
-2066.647870462811
 21
67.84047117610828
  0
LINE
  5
618
100
AcDbEntity
  8
frame_rr10
  6
ByLayer
 62
  256
370
   -1
100
AcDbLine
 10
-2791.647870462811
 20
42.8404711694015
 11
-2066.647870462811
 21
42.8404711756852
  0
LINE
  5
619
100
AcDbEntity
  8
frame_rr10
  6
ByLayer
 62
  256
370
   -1
100
AcDbLine
 10
-607.7279024329507
 20
-7.158059876498214
 11
-607.6544515785386
 21
492.8665464227017
  0
LINE
  5
61A
100
AcDbEntity
  8
frame_rr10
  6
ByLayer
 62
  256
370
   -1
100
AcDbLine
 10
-632.7279021632257
 20
-7.154387514543714
 11
-632.6544513088136
 21
492.8702187846562
  0
LINE
  5
61B
100
AcDbEntity
  8
frame_rr10
  6
ByLayer
 62
  256
370
   -1
100
AcDbLine
 10
-1668.595714452011
 20
492.86507747792
 11
-632.6544513088136
 21
492.8702187846562
  0
LINE
  5
61C
100
AcDbEntity
  8
frame_rr10
  6
ByLayer
 62
  256
370
   -1
100
AcDbLine
 10
-632.6544513088136
 20
492.8702187846562
 11
-607.6544515785386
 21
492.8665464227017
  0
LINE
  5
61D
100
AcDbEntity
  8
frame_rr10
  6
ByLayer
 62
  256
370
   -1
100
AcDbLine
 10
-1668.595714430011
 20
-7.159528821280048
 11
-632.7279021632257
 21
-7.154387514543714
  0
LINE
  5
61E
100
AcDbEntity
  8
frame_rr10
  6
ByLayer
 62
  256
370
   -1
100
AcDbLine
 10
-607.7279024329507
 20
-7.158059876498214
 11
-632.7279021632257
 21
-7.154387514543714
  0
LINE
  5
61F
100
AcDbEntity
  8
frame_rr10
  6
ByLayer
 62
  256
370
   -1
100
AcDbLine
 10
-1668.595838512125
 20
17.84047117841209
 11
-632.7280262453407
 21
17.84561248514837
  0
LINE
  5
620
100
AcDbEntity
  8
frame_rr10
  6
ByLayer
 62
  256
370
   -1
100
AcDbLine
 10
-1668.595590378694
 20
467.8650774782278
 11
-632.6543272354966
 21
467.8702187849641
  0
LINE
  5
621
100
AcDbEntity
  8
frame_rr10
  6
ByLayer
 62
  256
370
   -1
100
AcDbLine
 10
-2316.647870462811
 20
417.8650774837631
 11
-2316.647870462811
 21
67.84047117380788
  0
LINE
  5
622
100
AcDbEntity
  8
frame_rr10
  6
ByLayer
 62
  256
370
   -1
100
AcDbLine
 10
-2316.647870462811
 20
67.84047117380788
 11
-2291.647870462811
 21
67.84047117403799
  0
LINE
  5
623
100
AcDbEntity
  8
frame_rr10
  6
ByLayer
 62
  256
370
   -1
100
AcDbLine
 10
-2291.647870462811
 20
67.84047117403799
 11
-2291.647870462811
 21
417.865077483489
  0
LINE
  5
624
100
AcDbEntity
  8
frame_rr10
  6
ByLayer
 62
  256
370
   -1
100
AcDbLine
 10
-1666.647870462811
 20
467.8650871446306
 11
-1666.647870462811
 21
17.84048084673179
  0
LINE
  5
625
100
AcDbEntity
  8
frame_rr10
  6
ByLayer
 62
  256
370
   -1
100
AcDbLine
 10
-1666.647870462811
 20
17.84048084673179
 11
-1641.647870462811
 21
17.84060492884618
  0
LINE
  5
626
100
AcDbEntity
  8
frame_rr10
  6
ByLayer
 62
  256
370
   -1
100
AcDbLine
 10
-1641.647870462811
 20
17.84060492884618
 11
-1641.647870462811
 21
467.8652112179474
  0
LINE
  5
627
100
AcDbEntity
  8
frame_rr10
  6
ByLayer
 62
  256
370
   -1
100
AcDbLine
 10
-986.6478704628108
 20
467.8684619388445
 11
-986.6478704628108
 21
17.84385588024406
  0
LINE
  5
628
100
AcDbEntity
  8
frame_rr10
  6
ByLayer
 62
  256
370
   -1
100
AcDbLine
 10
-986.6478704628108
 20
17.84385588024406
 11
-961.6478704628107
 21
17.84397996235845
  0
LINE
  5
629
100
AcDbEntity
  8
frame_rr10
  6
ByLayer
 62
  256
370
   -1
100
AcDbLine
 10
-961.6478704628107
 20
17.84397996235845
 11
-961.6478704628107
 21
467.868586012161
  0
LINE
  5
62A
100
AcDbEntity
  8
frame_rr10
  6
ByLayer
 62
  256
370
   -1
100
AcDbLine
 10
-2816.647870462811
 20
442.8650774890145
 11
-2816.647870462811
 21
42.8404711694015
  0
LINE
  5
62B
100
AcDbEntity
  8
frame_rr10
  6
ByLayer
 62
  256
370
   -1
100
AcDbLine
 10
-2791.647870462811
 20
442.8650774890145
 11
-2791.647870462811
 21
42.8404711694015
  0
LINE
  5
62C
100
AcDbEntity
  8
frame_rr10
  6
ByLayer
 62
  256
370
   -1
100
AcDbLine
 10
-2816.647870462811
 20
442.8650774890145
 11
-2791.647870462811
 21
442.8650774890145
  0
LINE
  5
62D
100
AcDbEntity
  8
frame_rr10
  6
ByLayer
 62
  256
370
   -1
100
AcDbLine
 10
-2816.647870462811
 20
42.8404711694015
 11
-2791.647870462811
 21
42.8404711694015
  0
LINE
  5
62E
100
AcDbEntity
  8
frame_rr10
  6
ByLayer
 62
  256
370
   -1
100
AcDbLine
 10
-2391.647870462811
 20
442.8650774890144
 11
-2391.647870462811
 21
42.84047116940138
  0
LINE
  5
62F
100
AcDbEntity
  8
frame_rr10
  6
ByLayer
 62
  256
370
   -1
100
AcDbLine
 10
-2416.647870462811
 20
442.8650774890144
 11
-2416.647870462811
 21
42.84047116940138
  0
LINE
  5
630
100
AcDbEntity
  8
frame_rr10
  6
ByLayer
 62
  256
370
   -1
100
AcDbLine
 10
-1891.647870462811
 20
442.8650774890143
 11
-1891.647870462811
 21
42.84047116940127
  0
LINE
  5
631
100
AcDbEntity
  8
frame_rr10
  6
ByLayer
 62
  256
370
   -1
100
AcDbLine
 10
-1916.647870462811
 20
442.8650774890143
 11
-1916.647870462811
 21
42.84047116940127
  0
LINE
  5
632
100
AcDbEntity
  8
frame_rr10
  6
ByLayer
 62
  256
370
   -1
100
AcDbLine
 10
-1241.647870462811
 20
442.8650774890142
 11
-1241.647870462811
 21
42.84047116940104
  0
LINE
  5
633
100
AcDbEntity
  8
frame_rr10
  6
ByLayer
 62
  256
370
   -1
100
AcDbLine
 10
-1266.647870462811
 20
442.8650774890142
 11
-1266.647870462811
 21
42.84047116940104
  0
LINE
  5
634
100
AcDbEntity
  8
frame_rr10
  6
ByLayer
 62
  256
370
   -1
100
AcDbLine
 10
-1916.647870462811
 20
17.84047117871995
 11
-1916.647870462811
 21
467.86507747792
  0
LINE
  5
635
100
AcDbEntity
  8
frame_rr10
  6
ByLayer
 62
  256
370
   -1
100
AcDbLine
 10
-1891.647870462811
 20
467.86507747792
 11
-1891.647870462811
 21
17.84047117871995
  0
LINE
  5
636
100
AcDbEntity
  8
frame_rr10
  6
ByLayer
 62
  256
370
   -1
100
AcDbLine
 10
-1266.647870462811
 20
17.84246616056259
 11
-1266.647870462811
 21
467.8670723176975
  0
LINE
  5
637
100
AcDbEntity
  8
frame_rr10
  6
ByLayer
 62
  256
370
   -1
100
AcDbLine
 10
-1241.647870462811
 20
467.8671963910142
 11
-1241.647870462811
 21
17.84259024267698
  0
LINE
  5
638
100
AcDbEntity
  8
frame_rr10
  6
ByLayer
 62
  256
370
   -1
100
AcDbLine
 10
-1011.647870462811
 20
467.8684619388445
 11
-1011.647870462811
 21
17.84385588024406
  0
LINE
  5
639
100
AcDbEntity
  8
frame_rr10
  6
ByLayer
 62
  256
370
   -1
100
AcDbLine
 10
-1036.647870462811
 20
467.8684619388445
 11
-1036.647870462811
 21
17.84385588024406
  0
SPLINE
  5
63A
100
AcDbEntity
  8
frame_rr10
  6
ByLayer
 62
  256
370
   -1
100
AcDbSpline
210
0
220
0
230
0
 70
    8
 71
    2
 72
    8
 73
    5
 74
    0
 42
1e-07
 43
1e-07
 40
0
 40
0
 40
0
 40
0.3333333333333333
 40
0.6666666666666666
 40
1
 40
1
 40
1
 10
-632.727902163226
 20
-875.314608944679
 30
0
 10
-906.538866622303
 20
-886.4393496085009
 30
0
 10
-1442.802992189185
 20
-899.2076346047111
 30
0
 10
-2205.836273358428
 20
-895.1703509929658
 30
0
 10
-2806.018068099826
 20
-867.6710220269944
 30
0
  0
SPLINE
  5
63B
100
AcDbEntity
  8
frame_rr10
  6
ByLayer
 62
  256
370
   -1
100
AcDbSpline
210
0
220
0
230
0
 70
    8
 71
    2
 72
    8
 73
    5
 74
    0
 42
1e-07
 43
1e-07
 40
0
 40
0
 40
0
 40
0.3333333333333333
 40
0.6666666666666666
 40
1
 40
1
 40
1
 10
-633.7427966929699
 20
-850.3352176571897
 30
0
 10
-907.3153418351309
 20
-861.4499943240479
 30
0
 10
-1443.006096426895
 20
-874.2062286467149
 30
0
 10
-2205.204785605724
 20
-870.1738770491669
 30
0
 10
-2804.873810241835
 20
-842.6972222769679
 30
0
  0
LINE
  5
63C
100
AcDbEntity
  8
frame_rr10
  6
ByLayer
 62
  256
370
   -1
100
AcDbLine
 10
-633.7427966929699
 20
-850.3352176571897
 11
-632.727902163226
 21
-850.3280042240305
  0
LINE
  5
63D
100
AcDbEntity
  8
frame_rr10
  6
ByLayer
 62
  256
370
   -1
100
AcDbLine
 10
-640.383892490544
 20
-705.8619938000669
 11
-632.727902163226
 21
-708.3840099317853
  0
LINE
  5
63E
100
AcDbEntity
  8
frame_rr10
  6
ByLayer
 62
  256
370
   -1
100
AcDbLine
 10
-2791.647870462811
 20
-683.5517301604463
 11
-2791.647870462811
 21
-868.3272148488932
  0
LINE
  5
63F
100
AcDbEntity
  8
frame_rr10
  6
ByLayer
 62
  256
370
   -1
100
AcDbLine
 10
-2816.647870462811
 20
-692.6698799281409
 11
-2816.647870462811
 21
-867.2674411724873
  0
LINE
  5
640
100
AcDbEntity
  8
frame_rr10
  6
ByLayer
 62
  256
370
   -1
100
AcDbLine
 10
-607.7279024329509
 20
-690.9394662312319
 11
-607.7279024329509
 21
-874.5292501325999
  0
LINE
  5
641
100
AcDbEntity
  8
frame_rr10
  6
ByLayer
 62
  256
370
   -1
100
AcDbLine
 10
-632.727902163226
 20
-682.0631322283864
 11
-632.727902163226
 21
-875.314608944679
  0
LINE
  5
642
100
AcDbEntity
  8
frame_rr10
  6
ByLayer
 62
  256
370
   -1
100
AcDbLine
 10
-632.727902163226
 20
-682.0631322283864
 11
-607.7279024329509
 21
-690.9394662312319
  0
LINE
  5
643
100
AcDbEntity
  8
frame_rr10
  6
ByLayer
 62
  256
370
   -1
100
AcDbLine
 10
-607.7279024329509
 20
-874.5292501325999
 11
-632.727902163226
 21
-875.314608944679
  0
SPLINE
  5
644
100
AcDbEntity
  8
frame_rr10
  6
ByLayer
 62
  256
370
   -1
100
AcDbSpline
210
0
220
0
230
0
 70
    8
 71
    2
 72
   12
 73
    9
 74
    0
 42
1e-07
 43
1e-07
 40
0
 40
0
 40
0
 40
0.1428571428571428
 40
0.2857142857142857
 40
0.4285714285714285
 40
0.5714285714285714
 40
0.7142857142857143
 40
0.8571428571428571
 40
1
 40
1
 40
1
 10
-640.383892490544
 20
-705.8619938000669
 30
0
 10
-818.2175624588523
 20
-648.6268125997356
 30
0
 10
-983.4857516050515
 20
-620.9867659901212
 30
0
 10
-1105.840128868165
 20
-608.5464091868477
 30
0
 10
-1315.007907893481
 20
-591.9242493190555
 30
0
 10
-1551.199345627166
 20
-576.8456762782306
 30
0
 10
-1864.003706117372
 20
-570.899832258323
 30
0
 10
-2464.107787313302
 20
-588.5345039251009
 30
0
 10
-2809.86970900668
 20
-716.8192018443384
 30
0
  0
SPLINE
  5
645
100
AcDbEntity
  8
frame_rr10
  6
ByLayer
 62
  256
370
   -1
100
AcDbSpline
210
0
220
0
230
0
 70
    8
 71
    2
 72
   12
 73
    9
 74
    0
 42
1e-07
 43
1e-07
 40
0
 40
0
 40
0
 40
0.1428571428571428
 40
0.2857142857142857
 40
0.4285714285714285
 40
0.5714285714285714
 40
0.7142857142857143
 40
0.8571428571428571
 40
1
 40
1
 40
1
 10
-632.727902163226
 20
-682.0631322283864
 30
0
 10
-812.3189836216841
 20
-624.2894619048176
 30
0
 10
-979.9551386804062
 20
-596.2217084322841
 30
0
 10
-1103.583645594669
 20
-583.6426600489743
 30
0
 10
-1313.27387069664
 20
-566.9834751348986
 30
0
 10
-1550.189742727456
 20
-551.8619310559004
 30
0
 10
-1864.534284713184
 20
-545.8748918802308
 30
0
 10
-2469.525688565851
 20
-563.9352379402777
 30
0
 10
-2818.562667485457
 20
-693.3792258868795
 30
0
  0
LINE
  5
646
100
AcDbEntity
  8
frame_rr10
  6
ByLayer
 62
  256
370
   -1
100
AcDbLine
 10
-2806.018068099826
 20
-867.6710220269944
 11
-2816.647870462811
 21
-867.2674411724873
  0
LINE
  5
647
100
AcDbEntity
  8
frame_rr10
  6
ByLayer
 62
  256
370
   -1
100
AcDbLine
 10
-1791.647870462811
 20
-573.1243857260457
 11
-1791.647870462811
 21
-872.3474495188435
  0
LINE
  5
648
100
AcDbEntity
  8
frame_rr10
  6
ByLayer
 62
  256
370
   -1
100
AcDbLine
 10
-1816.647870462811
 20
-872.2287581089442
 11
-1816.647870462811
 21
-573.1569311861726
  0
LINE
  5
649
100
AcDbEntity
  8
frame_rr10
  6
ByLayer
 62
  256
370
   -1
100
AcDbLine
 10
-1346.647870462811
 20
-590.133006614705
 11
-1346.647870462811
 21
-870.9069937966391
  0
LINE
  5
64A
100
AcDbEntity
  8
frame_rr10
  6
ByLayer
 62
  256
370
   -1
100
AcDbLine
 10
-1321.647870462811
 20
-591.8853790178038
 11
-1321.647870462811
 21
-870.5709441763064
  0
LINE
  5
64B
100
AcDbEntity
  8
frame_rr10
  6
ByLayer
 62
  256
370
   -1
100
AcDbLine
 10
-2241.647870462811
 20
-583.9341153779973
 11
-2241.647870462811
 21
-864.3494741516486
  0
LINE
  5
64C
100
AcDbEntity
  8
frame_rr10
  6
ByLayer
 62
  256
370
   -1
100
AcDbLine
 10
-2266.647870462811
 20
-863.6033481655962
 11
-2266.647870462811
 21
-586.0971950088868
  0
LINE
  5
64D
100
AcDbEntity
  8
frame_rr10
  6
ByLayer
 62
  256
370
   -1
100
AcDbLine
 10
-1791.647870462811
 20
-710.2359176224446
 11
-1346.647870462811
 21
-710.2359176224446
  0
LINE
  5
64E
100
AcDbEntity
  8
frame_rr10
  6
ByLayer
 62
  256
370
   -1
100
AcDbLine
 10
-1346.647870462811
 20
-735.2359176224446
 11
-1791.647870462811
 21
-735.2359176224446
  0
CIRCLE
  5
64F
100
AcDbEntity
  8
frame_rr10
  6
ByLayer
 62
  256
370
   -1
100
AcDbCircle
 10
-2404.147870462811
 20
-871.5906496141735
 40
12.5
  0
CIRCLE
  5
650
100
AcDbEntity
  8
frame_rr10
  6
ByLayer
 62
  256
370
   -1
100
AcDbCircle
 10
-2304.147870462811
 20
-577.5134030645419
 40
12.5
  0
CIRCLE
  5
651
100
AcDbEntity
  8
frame_rr10
  6
ByLayer
 62
  256
370
   -1
100
AcDbCircle
 10
-1654.147870462811
 20
-562.5547976547692
 40
12.5
  0
CIRCLE
  5
652
100
AcDbEntity
  8
frame_rr10
  6
ByLayer
 62
  256
370
   -1
100
AcDbCircle
 10
-1904.147870462811
 20
-884.0090424534799
 40
12.5
  0
CIRCLE
  5
653
100
AcDbEntity
  8
frame_rr10
  6
ByLayer
 62
  256
370
   -1
100
AcDbCircle
 10
-1254.147870462811
 20
-881.9791027183696
 40
12.5
  0
CIRCLE
  5
654
100
AcDbEntity
  8
frame_rr10
  6
ByLayer
 62
  256
370
   -1
100
AcDbCircle
 10
-974.1478704628112
 20
-610.8476181209159
 40
12.5
  0
CIRCLE
  5
655
100
AcDbEntity
  8
frame_rr10
  6
ByLayer
 62
  256
370
   -1
100
AcDbCircle
 10
-1024.14925257461
 20
-876.3677850104609
 40
12.5
  0
LINE
  5
656
100
AcDbEntity
  8
frame_rr10
  6
ByLayer
 62
  256
370
   -1
100
AcDbLine
 10
-976.4751051312439
 20
-232.803504686224
 11
-951.5837998421491
 21
-235.1322212866459
  0
LINE
  5
657
100
AcDbEntity
  8
frame_rr10
  6
ByLayer
 62
  256
370
   -1
100
AcDbLine
 10
-1036.594869630745
 20
-875.2030463736612
 11
-976.4751051312439
 21
-232.803504686224
  0
LINE
  5
658
100
AcDbEntity
  8
frame_rr10
  6
ByLayer
 62
  256
370
   -1
100
AcDbLine
 10
-1011.703635518454
 20
-877.5325236470354
 11
-951.5837998421491
 21
-235.1322212866459
  0
ENDSEC
  0
SECTION
  2
OBJECTS
  0
DICTIONARY
  5
C
330
0
100
AcDbDictionary
281
    1
  3
ACAD_GROUP
350
D
  0
DICTIONARY
  5
D
330
C
100
AcDbDictionary
281
    1
  0
ENDSEC
  0
EOF
