999
dxfrw 0.6.3
  0
SECTION
  2
HEADER
  9
$ACADVER
  1
AC1021
  9
$DWGCODEPAGE
  3
ANSI_1252
  9
$INSBASE
 10
0
 20
0
 30
0
  9
$EXTMIN
 10
-90
 20
-297.5
 30
0
  9
$EXTMAX
 10
574
 20
167.0685424949253
 30
0
  9
$LIMMIN
 10
0
 20
0
  9
$LIMMAX
 10
420
 20
297
  9
$ORTHOMODE
 70
    0
  9
$REGENMODE
 70
    1
  9
$FILLMODE
 70
    1
  9
$QTEXTMODE
 70
    0
  9
$MIRRTEXT
 70
    0
  9
$LTSCALE
 40
1
  9
$ATTMODE
 70
    0
  9
$TEXTSIZE
 40
2.5
  9
$TRACEWID
 40
15.68
  9
$TEXTSTYLE
  7
STANDARD
  9
$CLAYER
  8
0
  9
$CELTYPE
  6
BYLAYER
  9
$CECOLOR
 62
  256
  9
$CELTSCALE
 40
1
  9
$DISPSILH
 70
    0
  9
$DIMSCALE
 40
1
  9
$DIMASZ
 40
2.5
  9
$DIMEXO
 40
0.625
  9
$DIMDLI
 40
3.75
  9
$DIMRND
 40
0
  9
$DIMDLE
 40
0
  9
$DIMEXE
 40
1.25
  9
$DIMTP
 40
0
  9
$DIMTM
 40
0
  9
$DIMTXT
 40
8
  9
$DIMCEN
 40
2.5
  9
$DIMTSZ
 40
0
  9
$DIMTOL
 70
    0
  9
$DIMLIM
 70
    0
  9
$DIMTIH
 70
    0
  9
$DIMTOH
 70
    0
  9
$DIMSE1
 70
    0
  9
$DIMSE2
 70
    0
  9
$DIMTAD
 70
    1
  9
$DIMZIN
 70
    8
  9
$DIMBLK
  1

  9
$DIMASO
 70
    1
  9
$DIMSHO
 70
    1
  9
$DIMPOST
  1

  9
$DIMAPOST
  1

  9
$DIMALT
 70
    0
  9
$DIMALTD
 70
    3
  9
$DIMALTF
 40
0.03937
  9
$DIMLFAC
 40
1
  9
$DIMTOFL
 70
    1
  9
$DIMTVP
 40
0
  9
$DIMTIX
 70
    0
  9
$DIMSOXD
 70
    0
  9
$DIMSAH
 70
    0
  9
$DIMBLK1
  1

  9
$DIMBLK2
  1

  9
$DIMSTYLE
  2
Standard
  9
$DIMCLRD
 70
    0
  9
$DIMCLRE
 70
    0
  9
$DIMCLRT
 70
    0
  9
$DIMTFAC
 40
1
  9
$DIMGAP
 40
0.625
  9
$DIMJUST
 70
    0
  9
$DIMSD1
 70
    0
  9
$DIMSD2
 70
    0
  9
$DIMTOLJ
 70
    0
  9
$DIMTZIN
 70
    8
  9
$DIMALTZ
 70
    0
  9
$DIMALTTZ
 70
    0
  9
$DIMUPT
 70
    0
  9
$DIMDEC
 70
    2
  9
$DIMTDEC
 70
    2
  9
$DIMALTU
 70
    2
  9
$DIMALTTD
 70
    3
  9
$DIMTXSTY
  7
standard
  9
$DIMAUNIT
 70
    0
  9
$DIMADEC
 70
    0
  9
$DIMALTRND
 40
0
  9
$DIMAZIN
 70
    0
  9
$DIMDSEP
 70
   44
  9
$DIMATFIT
 70
    3
  9
$DIMFRAC
 70
    0
  9
$DIMLDRBLK
  1
STANDARD
  9
$DIMLUNIT
 70
    2
  9
$DIMLWD
 70
   -2
  9
$DIMLWE
 70
   -2
  9
$DIMTMOVE
 70
    0
  9
$DIMFXL
 40
1
  9
$DIMFXLON
 70
    0
  9
$DIMJOGANG
 40
0.7854
  9
$DIMTFILL
 70
    0
  9
$DIMTFILLCLR
 70
    0
  9
$DIMARCSYM
 70
    0
  9
$DIMLTYPE
  6

  9
$DIMLTEX1
  6

  9
$DIMLTEX2
  6

  9
$LUNITS
 70
    2
  9
$LUPREC
 70
    4
  9
$SKETCHINC
 40
1
  9
$FILLETRAD
 40
0
  9
$AUNITS
 70
    0
  9
$AUPREC
 70
    2
  9
$MENU
  1
.
  9
$ELEVATION
 40
0
  9
$PELEVATION
 40
0
  9
$THICKNESS
 40
0
  9
$LIMCHECK
 70
    0
  9
$CHAMFERA
 40
0
  9
$CHAMFERB
 40
0
  9
$CHAMFERC
 40
0
  9
$CHAMFERD
 40
0
  9
$SKPOLY
 70
    0
  9
$USRTIMER
 70
    1
  9
$ANGBASE
 50
0
  9
$ANGDIR
 70
    0
  9
$PDMODE
 70
   34
  9
$PDSIZE
 40
0
  9
$PLINEWID
 40
0
  9
$SPLFRAME
 70
    0
  9
$SPLINETYPE
 70
    2
  9
$SPLINESEGS
 70
    8
  9
$HANDSEED
  5
20000
  9
$SURFTAB1
 70
    6
  9
$SURFTAB2
 70
    6
  9
$SURFTYPE
 70
    6
  9
$SURFU
 70
    6
  9
$SURFV
 70
    6
  9
$UCSBASE
  2

  9
$UCSNAME
  2

  9
$UCSORG
 10
0
 20
0
 30
0
  9
$UCSXDIR
 10
1
 20
0
 30
0
  9
$UCSYDIR
 10
0
 20
1
 30
0
  9
$UCSORTHOREF
  2

  9
$UCSORTHOVIEW
 70
    0
  9
$UCSORGTOP
 10
0
 20
0
 30
0
  9
$UCSORGBOTTOM
 10
0
 20
0
 30
0
  9
$UCSORGLEFT
 10
0
 20
0
 30
0
  9
$UCSORGRIGHT
 10
0
 20
0
 30
0
  9
$UCSORGFRONT
 10
0
 20
0
 30
0
  9
$UCSORGBACK
 10
0
 20
0
 30
0
  9
$PUCSBASE
  2

  9
$PUCSNAME
  2

  9
$PUCSORG
 10
0
 20
0
 30
0
  9
$PUCSXDIR
 10
1
 20
0
 30
0
  9
$PUCSYDIR
 10
0
 20
1
 30
0
  9
$PUCSORTHOREF
  2

  9
$PUCSORTHOVIEW
 70
    0
  9
$PUCSORGTOP
 10
0
 20
0
 30
0
  9
$PUCSORGBOTTOM
 10
0
 20
0
 30
0
  9
$PUCSORGLEFT
 10
0
 20
0
 30
0
  9
$PUCSORGRIGHT
 10
0
 20
0
 30
0
  9
$PUCSORGFRONT
 10
0
 20
0
 30
0
  9
$PUCSORGBACK
 10
0
 20
0
 30
0
  9
$USERI1
 70
    0
  9
$USERI2
 70
    0
  9
$USERI3
 70
    0
  9
$USERI4
 70
    0
  9
$USERI5
 70
    0
  9
$USERR1
 40
0
  9
$USERR2
 40
0
  9
$USERR3
 40
0
  9
$USERR4
 40
0
  9
$USERR5
 40
0
  9
$WORLDVIEW
 70
    1
  9
$SHADEDGE
 70
    3
  9
$SHADEDIF
 70
   70
  9
$TILEMODE
 70
    1
  9
$MAXACTVP
 70
   64
  9
$PINSBASE
 10
37.57530120481927
 20
166.670044908463
 30
0
  9
$PLIMCHECK
 70
    0
  9
$PEXTMIN
 10
0
 20
0
 30
0
  9
$PEXTMAX
 10
0
 20
0
 30
0
  9
$GRIDMODE
 70
    1
  9
$SNAPSTYLE
 70
    0
  9
$GRIDUNIT
 10
0
 20
0
  9
$PLIMMIN
 10
0
 20
0
  9
$PLIMMAX
 10
210
 20
297
  9
$UNITMODE
 70
    0
  9
$VISRETAIN
 70
    1
  9
$PLINEGEN
 70
    0
  9
$PSLTSCALE
 70
    1
  9
$TREEDEPTH
 70
 3020
  9
$CMLSTYLE
  2
Standard
  9
$CMLJUST
 70
    0
  9
$CMLSCALE
 40
20
  9
$PROXYGRAPHICS
 70
    1
  9
$MEASUREMENT
 70
    1
  9
$CELWEIGHT
370
   -1
  9
$ENDCAPS
280
    0
  9
$JOINSTYLE
280
    0
  9
$LWDISPLAY
290
    0
  9
$INSUNITS
 70
    4
  9
$HYPERLINKBASE
  1

  9
$STYLESHEET
  1

  9
$XEDIT
290
    1
  9
$CEPSNTYPE
380
    0
  9
$PSTYLEMODE
290
    1
  9
$EXTNAMES
290
    1
  9
$PSVPSCALE
 40
0.2786143948913264
  9
$OLESTARTUP
290
    0
  9
$SORTENTS
280
  127
  9
$INDEXCTL
280
    0
  9
$HIDETEXT
280
    1
  9
$XCLIPFRAME
290
    0
  9
$HALOGAP
280
    0
  9
$OBSCOLOR
 70
  257
  9
$OBSLTYPE
280
    0
  9
$INTERSECTIONDISPLAY
280
    0
  9
$INTERSECTIONCOLOR
 70
  257
  9
$DIMASSOC
280
    1
  9
$PROJECTNAME
  1

  9
$CAMERADISPLAY
290
    0
  9
$LENSLENGTH
 40
50
  9
$CAMERAHEIGHT
 40
0
  9
$STEPSPERSEC
 40
2
  9
$STEPSIZE
 40
50
  9
$3DDWFPREC
 40
2
  9
$PSOLWIDTH
 40
5
  9
$PSOLHEIGHT
 40
80
  9
$LOFTANG1
 40
1.570796326794897
  9
$LOFTANG2
 40
1.570796326794897
  9
$LOFTMAG1
 40
0
  9
$LOFTMAG2
 40
0
  9
$LOFTPARAM
 70
    7
  9
$LOFTNORMALS
280
    1
  9
$LATITUDE
 40
1
  9
$LONGITUDE
 40
1
  9
$NORTHDIRECTION
 40
0
  9
$TIMEZONE
 70
-8000
  9
$LIGHTGLYPHDISPLAY
280
    1
  9
$TILEMODELIGHTSYNCH
280
    1
  9
$SOLIDHIST
280
    1
  9
$SHOWHIST
280
    1
  9
$DWFFRAME
280
    2
  9
$DGNFRAME
280
    0
  9
$REALWORLDSCALE
290
    1
  9
$INTERFERECOLOR
 62
    1
  9
$CSHADOW
280
    0
  9
$SHADOWPLANELOCATION
 40
0
  0
ENDSEC
  0
SECTION
  2
CLASSES
  0
ENDSEC
  0
SECTION
  2
TABLES
  0
TABLE
  2
VPORT
  5
8
330
0
100
AcDbSymbolTable
 70
    1
  0
VPORT
  5
31
330
2
100
AcDbSymbolTableRecord
100
AcDbViewportTableRecord
  2
*ACTIVE
 70
    0
 10
0
 20
0
 11
1
 21
1
 12
344.5550023504029
 22
86.65990119616875
 13
0
 23
0
 14
10
 24
10
 15
10
 25
10
 16
0
 26
0
 36
1
 17
0
 27
0
 37
0
 40
476.4805564050515
 41
1.875
 42
50
 43
0
 44
0
 50
0
 51
0
 71
    0
 72
  100
 73
    1
 74
    3
 75
    0
 76
    1
 77
    0
 78
    0
281
    0
 65
    1
110
0
120
0
130
0
111
1
121
0
131
0
112
0
122
1
132
0
 79
    0
146
0
348
10020
 60
    7
 61
    5
292
1
282
    1
141
0
142
0
 63
  250
421
3358443
  0
ENDTAB
  0
TABLE
  2
LTYPE
  5
5
330
0
100
AcDbSymbolTable
 70
    4
  0
LTYPE
  5
14
330
5
100
AcDbSymbolTableRecord
100
AcDbLinetypeTableRecord
  2
ByBlock
 70
    0
  3

 72
   65
 73
    0
 40
0
  0
LTYPE
  5
15
330
5
100
AcDbSymbolTableRecord
100
AcDbLinetypeTableRecord
  2
ByLayer
 70
    0
  3

 72
   65
 73
    0
 40
0
  0
LTYPE
  5
16
330
5
100
AcDbSymbolTableRecord
100
AcDbLinetypeTableRecord
  2
Continuous
 70
    0
  3
Solid line
 72
   65
 73
    0
 40
0
  0
LTYPE
  5
32
330
5
100
AcDbSymbolTableRecord
100
AcDbLinetypeTableRecord
  2
DOT
 70
    0
  3
Dot . . . . . . . . . . . . . . . . . . . . . .
 72
   65
 73
    2
 40
6.35
 49
0
 74
    0
 49
-6.35
 74
    0
  0
LTYPE
  5
33
330
5
100
AcDbSymbolTableRecord
100
AcDbLinetypeTableRecord
  2
DOTTINY
 70
    0
  3
Dot (.15x) .....................................
 72
   65
 73
    2
 40
0.9525
 49
0
 74
    0
 49
-0.9525
 74
    0
  0
LTYPE
  5
34
330
5
100
AcDbSymbolTableRecord
100
AcDbLinetypeTableRecord
  2
DOT2
 70
    0
  3
Dot (.5x) .....................................
 72
   65
 73
    2
 40
3.175
 49
0
 74
    0
 49
-3.175
 74
    0
  0
LTYPE
  5
35
330
5
100
AcDbSymbolTableRecord
100
AcDbLinetypeTableRecord
  2
DOTX2
 70
    0
  3
Dot (2x) .  .  .  .  .  .  .  .  .  .  .  .  .
 72
   65
 73
    2
 40
12.7
 49
0
 74
    0
 49
-12.7
 74
    0
  0
LTYPE
  5
36
330
5
100
AcDbSymbolTableRecord
100
AcDbLinetypeTableRecord
  2
DASHED
 70
    0
  3
Dashed _ _ _ _ _ _ _ _ _ _ _ _ _ _ _ _ _
 72
   65
 73
    2
 40
19.05
 49
12.7
 74
    0
 49
-6.35
 74
    0
  0
LTYPE
  5
37
330
5
100
AcDbSymbolTableRecord
100
AcDbLinetypeTableRecord
  2
DASHEDTINY
 70
    0
  3
Dashed (.15x) _ _ _ _ _ _ _ _ _ _ _ _ _ _ _ _ _
 72
   65
 73
    2
 40
2.8575
 49
1.905
 74
    0
 49
-0.9525
 74
    0
  0
LTYPE
  5
38
330
5
100
AcDbSymbolTableRecord
100
AcDbLinetypeTableRecord
  2
DASHED2
 70
    0
  3
Dashed (.5x) _ _ _ _ _ _ _ _ _ _ _ _ _ _ _ _ _
 72
   65
 73
    2
 40
9.524999999999999
 49
6.35
 74
    0
 49
-3.175
 74
    0
  0
LTYPE
  5
39
330
5
100
AcDbSymbolTableRecord
100
AcDbLinetypeTableRecord
  2
DASHEDX2
 70
    0
  3
Dashed (2x) ____  ____  ____  ____  ____  ___
 72
   65
 73
    2
 40
38.09999999999999
 49
25.4
 74
    0
 49
-12.7
 74
    0
  0
LTYPE
  5
3A
330
5
100
AcDbSymbolTableRecord
100
AcDbLinetypeTableRecord
  2
DASHDOT
 70
    0
  3
Dash dot __ . __ . __ . __ . __ . __ . __ . __
 72
   65
 73
    4
 40
25.4
 49
12.7
 74
    0
 49
-6.35
 74
    0
 49
0
 74
    0
 49
-6.35
 74
    0
  0
LTYPE
  5
3B
330
5
100
AcDbSymbolTableRecord
100
AcDbLinetypeTableRecord
  2
DASHDOTTINY
 70
    0
  3
Dash dot (.15x) _._._._._._._._._._._._._._._.
 72
   65
 73
    4
 40
3.81
 49
1.905
 74
    0
 49
-0.9525
 74
    0
 49
0
 74
    0
 49
-0.9525
 74
    0
  0
LTYPE
  5
3C
330
5
100
AcDbSymbolTableRecord
100
AcDbLinetypeTableRecord
  2
DASHDOT2
 70
    0
  3
Dash dot (.5x) _._._._._._._._._._._._._._._.
 72
   65
 73
    4
 40
12.7
 49
6.35
 74
    0
 49
-3.175
 74
    0
 49
0
 74
    0
 49
-3.175
 74
    0
  0
LTYPE
  5
3D
330
5
100
AcDbSymbolTableRecord
100
AcDbLinetypeTableRecord
  2
DASHDOTX2
 70
    0
  3
Dash dot (2x) ____  .  ____  .  ____  .  ___
 72
   65
 73
    4
 40
50.8
 49
25.4
 74
    0
 49
-12.7
 74
    0
 49
0
 74
    0
 49
-12.7
 74
    0
  0
LTYPE
  5
3E
330
5
100
AcDbSymbolTableRecord
100
AcDbLinetypeTableRecord
  2
DIVIDE
 70
    0
  3
Divide ____ . . ____ . . ____ . . ____ . . ____
 72
   65
 73
    6
 40
31.75
 49
12.7
 74
    0
 49
-6.35
 74
    0
 49
0
 74
    0
 49
-6.35
 74
    0
 49
0
 74
    0
 49
-6.35
 74
    0
  0
LTYPE
  5
3F
330
5
100
AcDbSymbolTableRecord
100
AcDbLinetypeTableRecord
  2
DIVIDETINY
 70
    0
  3
Divide (.15x) __..__..__..__..__..__..__..__.._
 72
   65
 73
    6
 40
4.7625
 49
1.905
 74
    0
 49
-0.9525
 74
    0
 49
0
 74
    0
 49
-0.9525
 74
    0
 49
0
 74
    0
 49
-0.9525
 74
    0
  0
LTYPE
  5
40
330
5
100
AcDbSymbolTableRecord
100
AcDbLinetypeTableRecord
  2
DIVIDE2
 70
    0
  3
Divide (.5x) __..__..__..__..__..__..__..__.._
 72
   65
 73
    6
 40
15.875
 49
6.35
 74
    0
 49
-3.175
 74
    0
 49
0
 74
    0
 49
-3.175
 74
    0
 49
0
 74
    0
 49
-3.175
 74
    0
  0
LTYPE
  5
41
330
5
100
AcDbSymbolTableRecord
100
AcDbLinetypeTableRecord
  2
DIVIDEX2
 70
    0
  3
Divide (2x) ________  .  .  ________  .  .  _
 72
   65
 73
    6
 40
63.5
 49
25.4
 74
    0
 49
-12.7
 74
    0
 49
0
 74
    0
 49
-12.7
 74
    0
 49
0
 74
    0
 49
-12.7
 74
    0
  0
LTYPE
  5
42
330
5
100
AcDbSymbolTableRecord
100
AcDbLinetypeTableRecord
  2
BORDER
 70
    0
  3
Border __ __ . __ __ . __ __ . __ __ . __ __ .
 72
   65
 73
    6
 40
44.45
 49
12.7
 74
    0
 49
-6.35
 74
    0
 49
12.7
 74
    0
 49
-6.35
 74
    0
 49
0
 74
    0
 49
-6.35
 74
    0
  0
LTYPE
  5
43
330
5
100
AcDbSymbolTableRecord
100
AcDbLinetypeTableRecord
  2
BORDERTINY
 70
    0
  3
Border (.15x) __.__.__.__.__.__.__.__.__.__.__.
 72
   65
 73
    6
 40
6.6675
 49
1.905
 74
    0
 49
-0.9525
 74
    0
 49
1.905
 74
    0
 49
-0.9525
 74
    0
 49
0
 74
    0
 49
-0.9525
 74
    0
  0
LTYPE
  5
44
330
5
100
AcDbSymbolTableRecord
100
AcDbLinetypeTableRecord
  2
BORDER2
 70
    0
  3
Border (.5x) __.__.__.__.__.__.__.__.__.__.__.
 72
   65
 73
    6
 40
22.225
 49
6.35
 74
    0
 49
-3.175
 74
    0
 49
6.35
 74
    0
 49
-3.175
 74
    0
 49
0
 74
    0
 49
-3.175
 74
    0
  0
LTYPE
  5
45
330
5
100
AcDbSymbolTableRecord
100
AcDbLinetypeTableRecord
  2
BORDERX2
 70
    0
  3
Border (2x) ____  ____  .  ____  ____  .  ___
 72
   65
 73
    6
 40
88.89999999999999
 49
25.4
 74
    0
 49
-12.7
 74
    0
 49
25.4
 74
    0
 49
-12.7
 74
    0
 49
0
 74
    0
 49
-12.7
 74
    0
  0
LTYPE
  5
46
330
5
100
AcDbSymbolTableRecord
100
AcDbLinetypeTableRecord
  2
CENTER
 70
    0
  3
Center ____ _ ____ _ ____ _ ____ _ ____ _ ____
 72
   65
 73
    4
 40
50.8
 49
31.75
 74
    0
 49
-6.35
 74
    0
 49
6.35
 74
    0
 49
-6.35
 74
    0
  0
LTYPE
  5
47
330
5
100
AcDbSymbolTableRecord
100
AcDbLinetypeTableRecord
  2
CENTERTINY
 70
    0
  3
Center (.15x) ___ _ ___ _ ___ _ ___ _ ___ _ ___
 72
   65
 73
    4
 40
7.619999999999999
 49
4.7625
 74
    0
 49
-0.9525
 74
    0
 49
0.9525
 74
    0
 49
-0.9525
 74
    0
  0
LTYPE
  5
48
330
5
100
AcDbSymbolTableRecord
100
AcDbLinetypeTableRecord
  2
CENTER2
 70
    0
  3
Center (.5x) ___ _ ___ _ ___ _ ___ _ ___ _ ___
 72
   65
 73
    4
 40
28.575
 49
19.05
 74
    0
 49
-3.175
 74
    0
 49
3.175
 74
    0
 49
-3.175
 74
    0
  0
LTYPE
  5
49
330
5
100
AcDbSymbolTableRecord
100
AcDbLinetypeTableRecord
  2
CENTERX2
 70
    0
  3
Center (2x) ________  __  ________  __  _____
 72
   65
 73
    4
 40
101.6
 49
63.5
 74
    0
 49
-12.7
 74
    0
 49
12.7
 74
    0
 49
-12.7
 74
    0
  0
ENDTAB
  0
TABLE
  2
LAYER
  5
2
330
0
100
AcDbSymbolTable
 70
    1
  0
LAYER
  5
10
330
2
100
AcDbSymbolTableRecord
100
AcDbLayerTableRecord
  2
0
 70
    0
 62
    7
  6
CONTINUOUS
370
    0
390
F
  0
LAYER
  5
4A
330
2
100
AcDbSymbolTableRecord
100
AcDbLayerTableRecord
  2
dimensions
 70
    0
 62
    4
  6
CONTINUOUS
370
    0
390
F
  0
LAYER
  5
4B
330
2
100
AcDbSymbolTableRecord
100
AcDbLayerTableRecord
  2
part1
 70
    0
 62
    1
  6
CONTINUOUS
370
    0
390
F
  0
LAYER
  5
4C
330
2
100
AcDbSymbolTableRecord
100
AcDbLayerTableRecord
  2
part2
 70
    0
 62
    5
  6
CONTINUOUS
370
    0
390
F
  0
LAYER
  5
4D
330
2
100
AcDbSymbolTableRecord
100
AcDbLayerTableRecord
  2
part3
 70
    0
 62
    3
  6
CONTINUOUS
370
    0
390
F
  0
LAYER
  5
4E
330
2
100
AcDbSymbolTableRecord
100
AcDbLayerTableRecord
  2
part4
 70
    0
 62
    6
  6
CONTINUOUS
370
    0
390
F
  0
ENDTAB
  0
TABLE
  2
STYLE
  5
3
330
0
100
AcDbSymbolTable
 70
    3
  0
STYLE
  5
4F
330
2
100
AcDbSymbolTableRecord
100
AcDbTextStyleTableRecord
  2
Standard
 70
    0
 40
0
 41
1
 50
0
 71
    0
 42
1
  3
txt
  4

  0
ENDTAB
  0
TABLE
  2
VIEW
  5
6
330
0
100
AcDbSymbolTable
 70
    0
  0
ENDTAB
  0
TABLE
  2
UCS
  5
7
330
0
100
AcDbSymbolTable
 70
    0
  0
ENDTAB
  0
TABLE
  2
APPID
  5
9
330
0
100
AcDbSymbolTable
 70
    1
  0
APPID
  5
12
330
9
100
AcDbSymbolTableRecord
100
AcDbRegAppTableRecord
  2
ACAD
 70
    0
  0
APPID
  5
50
330
9
100
AcDbSymbolTableRecord
100
AcDbRegAppTableRecord
  2
LibreCad
 70
    0
  0
ENDTAB
  0
TABLE
  2
DIMSTYLE
  5
A
330
0
100
AcDbSymbolTable
 70
    1
100
AcDbDimStyleTable
 71
    1
  0
DIMSTYLE
105
51
330
A
100
AcDbSymbolTableRecord
100
AcDbDimStyleTableRecord
  2
Standard
 70
    0
 40
1
 41
2.5
 42
0.625
 43
0.38
 44
1.25
 45
0
 46
0
 47
0
 48
0
 49
1
140
8
141
0.09
142
0
143
25.4
144
1
145
0
146
1
147
0.625
148
0
 71
    0
 72
    0
 73
    0
 74
    1
 75
    0
 76
    0
 77
    0
 78
    8
 79
    0
170
    0
171
    2
172
    0
173
    0
174
    0
175
    0
176
    0
177
    0
178
    0
179
    0
271
    2
272
    4
273
    2
274
    2
275
    0
276
    0
277
    2
278
   44
279
    0
280
    0
281
    0
282
    0
283
    1
284
    0
285
    0
286
    0
288
    0
289
    3
340
standard
341

371
   -2
372
   -2
  0
ENDTAB
  0
TABLE
  2
BLOCK_RECORD
  5
1
330
0
100
AcDbSymbolTable
 70
    2
  0
BLOCK_RECORD
  5
1F
330
1
100
AcDbSymbolTableRecord
100
AcDbBlockTableRecord
  2
*Model_Space
 70
    0
280
    1
281
    0
  0
BLOCK_RECORD
  5
1E
330
1
100
AcDbSymbolTableRecord
100
AcDbBlockTableRecord
  2
*Paper_Space
 70
    0
280
    1
281
    0
  0
BLOCK_RECORD
  5
52
330
1
100
AcDbSymbolTableRecord
100
AcDbBlockTableRecord
  2
*D3
 70
    0
280
    1
281
    0
  0
BLOCK_RECORD
  5
55
330
1
100
AcDbSymbolTableRecord
100
AcDbBlockTableRecord
  2
*D23
 70
    0
280
    1
281
    0
  0
BLOCK_RECORD
  5
58
330
1
100
AcDbSymbolTableRecord
100
AcDbBlockTableRecord
  2
*D29
 70
    0
280
    1
281
    0
  0
BLOCK_RECORD
  5
5B
330
1
100
AcDbSymbolTableRecord
100
AcDbBlockTableRecord
  2
*D26
 70
    0
280
    1
281
    0
  0
BLOCK_RECORD
  5
5E
330
1
100
AcDbSymbolTableRecord
100
AcDbBlockTableRecord
  2
*D24
 70
    0
280
    1
281
    0
  0
BLOCK_RECORD
  5
61
330
1
100
AcDbSymbolTableRecord
100
AcDbBlockTableRecord
  2
*D30
 70
    0
280
    1
281
    0
  0
BLOCK_RECORD
  5
64
330
1
100
AcDbSymbolTableRecord
100
AcDbBlockTableRecord
  2
*D22
 70
    0
280
    1
281
    0
  0
BLOCK_RECORD
  5
67
330
1
100
AcDbSymbolTableRecord
100
AcDbBlockTableRecord
  2
*D25
 70
    0
280
    1
281
    0
  0
BLOCK_RECORD
  5
6A
330
1
100
AcDbSymbolTableRecord
100
AcDbBlockTableRecord
  2
*D27
 70
    0
280
    1
281
    0
  0
BLOCK_RECORD
  5
6D
330
1
100
AcDbSymbolTableRecord
100
AcDbBlockTableRecord
  2
*D13
 70
    0
280
    1
281
    0
  0
BLOCK_RECORD
  5
70
330
1
100
AcDbSymbolTableRecord
100
AcDbBlockTableRecord
  2
*D8
 70
    0
280
    1
281
    0
  0
BLOCK_RECORD
  5
73
330
1
100
AcDbSymbolTableRecord
100
AcDbBlockTableRecord
  2
*D18
 70
    0
280
    1
281
    0
  0
BLOCK_RECORD
  5
76
330
1
100
AcDbSymbolTableRecord
100
AcDbBlockTableRecord
  2
*D10
 70
    0
280
    1
281
    0
  0
BLOCK_RECORD
  5
79
330
1
100
AcDbSymbolTableRecord
100
AcDbBlockTableRecord
  2
*D32
 70
    0
280
    1
281
    0
  0
BLOCK_RECORD
  5
7C
330
1
100
AcDbSymbolTableRecord
100
AcDbBlockTableRecord
  2
*D31
 70
    0
280
    1
281
    0
  0
BLOCK_RECORD
  5
7F
330
1
100
AcDbSymbolTableRecord
100
AcDbBlockTableRecord
  2
*D15
 70
    0
280
    1
281
    0
  0
BLOCK_RECORD
  5
82
330
1
100
AcDbSymbolTableRecord
100
AcDbBlockTableRecord
  2
*D2
 70
    0
280
    1
281
    0
  0
BLOCK_RECORD
  5
85
330
1
100
AcDbSymbolTableRecord
100
AcDbBlockTableRecord
  2
*D11
 70
    0
280
    1
281
    0
  0
BLOCK_RECORD
  5
88
330
1
100
AcDbSymbolTableRecord
100
AcDbBlockTableRecord
  2
*D28
 70
    0
280
    1
281
    0
  0
BLOCK_RECORD
  5
8B
330
1
100
AcDbSymbolTableRecord
100
AcDbBlockTableRecord
  2
*D9
 70
    0
280
    1
281
    0
  0
BLOCK_RECORD
  5
8E
330
1
100
AcDbSymbolTableRecord
100
AcDbBlockTableRecord
  2
*D7
 70
    0
280
    1
281
    0
  0
BLOCK_RECORD
  5
91
330
1
100
AcDbSymbolTableRecord
100
AcDbBlockTableRecord
  2
*D12
 70
    0
280
    1
281
    0
  0
BLOCK_RECORD
  5
94
330
1
100
AcDbSymbolTableRecord
100
AcDbBlockTableRecord
  2
*D1
 70
    0
280
    1
281
    0
  0
BLOCK_RECORD
  5
97
330
1
100
AcDbSymbolTableRecord
100
AcDbBlockTableRecord
  2
*D5
 70
    0
280
    1
281
    0
  0
BLOCK_RECORD
  5
9A
330
1
100
AcDbSymbolTableRecord
100
AcDbBlockTableRecord
  2
*D20
 70
    0
280
    1
281
    0
  0
BLOCK_RECORD
  5
9D
330
1
100
AcDbSymbolTableRecord
100
AcDbBlockTableRecord
  2
*D16
 70
    0
280
    1
281
    0
  0
BLOCK_RECORD
  5
A0
330
1
100
AcDbSymbolTableRecord
100
AcDbBlockTableRecord
  2
*D14
 70
    0
280
    1
281
    0
  0
BLOCK_RECORD
  5
A3
330
1
100
AcDbSymbolTableRecord
100
AcDbBlockTableRecord
  2
*D21
 70
    0
280
    1
281
    0
  0
BLOCK_RECORD
  5
A6
330
1
100
AcDbSymbolTableRecord
100
AcDbBlockTableRecord
  2
*D6
 70
    0
280
    1
281
    0
  0
BLOCK_RECORD
  5
A9
330
1
100
AcDbSymbolTableRecord
100
AcDbBlockTableRecord
  2
*D17
 70
    0
280
    1
281
    0
  0
BLOCK_RECORD
  5
AC
330
1
100
AcDbSymbolTableRecord
100
AcDbBlockTableRecord
  2
*D19
 70
    0
280
    1
281
    0
  0
BLOCK_RECORD
  5
AF
330
1
100
AcDbSymbolTableRecord
100
AcDbBlockTableRecord
  2
*D4
 70
    0
280
    1
281
    0
  0
ENDTAB
  0
ENDSEC
  0
SECTION
  2
BLOCKS
  0
BLOCK
  5
20
330
1F
100
AcDbEntity
  8
0
100
AcDbBlockBegin
  2
*Model_Space
 70
    0
 10
0
 20
0
 30
0
  3
*Model_Space
  1

  0
ENDBLK
  5
21
330
1F
100
AcDbEntity
  8
0
100
AcDbBlockEnd
  0
BLOCK
  5
1C
330
1B
100
AcDbEntity
  8
0
100
AcDbBlockBegin
  2
*Paper_Space
 70
    0
 10
0
 20
0
 30
0
  3
*Paper_Space
  1

  0
ENDBLK
  5
1D
330
1F
100
AcDbEntity
  8
0
100
AcDbBlockEnd
  0
BLOCK
  5
53
330
52
100
AcDbEntity
  8
0
100
AcDbBlockBegin
  2
*D3
 70
    1
 10
0
 20
0
  3
*D3
  1

  0
LINE
  5
B2
100
AcDbEntity
  8
dimensions
  6
ByBlock
 62
    0
370
   -2
100
AcDbLine
 10
124.9999999999999
 20
-109.375
 11
124.9999999999999
 21
-28.75
  0
LINE
  5
B3
100
AcDbEntity
  8
dimensions
  6
ByBlock
 62
    0
370
   -2
100
AcDbLine
 10
150
 20
-109.375
 11
150
 21
-28.75
  0
LINE
  5
B4
100
AcDbEntity
  8
dimensions
  6
ByBlock
 62
    0
370
   -2
100
AcDbLine
 10
124.9999999999999
 20
-30
 11
150
 21
-30
  0
SOLID
  5
B5
100
AcDbEntity
  8
dimensions
  6
ByBlock
 62
    0
370
   -2
100
AcDbTrace
 10
124.9999999999999
 20
-30
 30
0
 11
127.4999999999999
 21
-29.58371534222716
 31
0
 12
127.4999999999999
 22
-30.41628465777284
 32
0
 13
127.4999999999999
 23
-30.41628465777284
 33
0
  0
SOLID
  5
B6
100
AcDbEntity
  8
dimensions
  6
ByBlock
 62
    0
370
   -2
100
AcDbTrace
 10
150
 20
-30
 30
0
 11
147.5
 21
-30.41628465777284
 31
0
 12
147.5
 22
-29.58371534222716
 32
0
 13
147.5
 23
-29.58371534222716
 33
0
  0
MTEXT
  5
B7
100
AcDbEntity
  8
dimensions
  6
CONTINUOUS
 62
    0
370
   -2
100
AcDbMText
 10
137.4999999999999
 20
-25.375
 30
0
 40
8
 41
9.777777777778272
 71
    5
 72
    1
  1
25
  7
standard
210
0
220
0
230
1
 50
0
 73
    2
 44
1
  0
ENDBLK
  5
54
330
52
100
AcDbEntity
  8
0
100
AcDbBlockEnd
  0
BLOCK
  5
56
330
55
100
AcDbEntity
  8
0
100
AcDbBlockBegin
  2
*D23
 70
    1
 10
0
 20
0
  3
*D23
  1

  0
SOLID
  5
B8
100
AcDbEntity
  8
dimensions
  6
ByBlock
 62
    0
370
   -2
100
AcDbTrace
 10
232.7279220613578
 20
-117.2720779386421
 30
0
 11
231.2545128128065
 21
-119.3342025960236
 31
0
 12
230.6657974039763
 22
-118.7454871871934
 32
0
 13
230.6657974039763
 23
-118.7454871871934
 33
0
  0
LINE
  5
B9
100
AcDbEntity
  8
dimensions
  6
ByBlock
 62
    0
370
   -2
100
AcDbLine
 10
220
 20
-130
 11
232.7279220613578
 21
-117.2720779386421
  0
MTEXT
  5
BA
100
AcDbEntity
  8
dimensions
  6
CONTINUOUS
 62
    0
370
   -2
100
AcDbMText
 10
223.0935921676911
 20
-120.3656701063333
 30
0
 40
8
 41
8
 71
    5
 72
    1
  1
18
  7
standard
210
0
220
0
230
1
 50
45.00000000000026
 73
    2
 44
1
  0
ENDBLK
  5
57
330
55
100
AcDbEntity
  8
0
100
AcDbBlockEnd
  0
BLOCK
  5
59
330
58
100
AcDbEntity
  8
0
100
AcDbBlockBegin
  2
*D29
 70
    1
 10
0
 20
0
  3
*D29
  1

  0
LINE
  5
BB
100
AcDbEntity
  8
dimensions
  6
ByBlock
 62
    0
370
   -2
100
AcDbLine
 10
160
 20
-70
 11
160
 21
-57.5
  0
SOLID
  5
BC
100
AcDbEntity
  8
dimensions
  6
ByBlock
 62
    0
370
   -2
100
AcDbTrace
 10
160
 20
-70
 30
0
 11
159.5837153422272
 21
-67.5
 31
0
 12
160.4162846577728
 22
-67.5
 32
0
 13
160.4162846577728
 23
-67.5
 33
0
  0
SOLID
  5
BD
100
AcDbEntity
  8
dimensions
  6
ByBlock
 62
    0
370
   -2
100
AcDbTrace
 10
160
 20
-57.5
 30
0
 11
160.4162846577728
 21
-60
 31
0
 12
159.5837153422272
 22
-60
 32
0
 13
159.5837153422272
 23
-60
 33
0
  0
MTEXT
  5
BE
100
AcDbEntity
  8
dimensions
  6
CONTINUOUS
 62
    0
370
   -2
100
AcDbMText
 10
170
 20
-64.45833333333309
 30
0
 40
8
 41
17.33333333333383
 71
    5
 72
    1
  1
12,5
  7
standard
210
0
220
0
230
1
 50
90
 73
    2
 44
1
  0
LINE
  5
BF
100
AcDbEntity
  8
dimensions
  6
ByBlock
 62
    0
370
   -2
100
AcDbLine
 10
138.125
 20
-70
 11
161.25
 21
-70
  0
LINE
  5
C0
100
AcDbEntity
  8
dimensions
  6
ByBlock
 62
    0
370
   -2
100
AcDbLine
 10
118.125
 20
-57.5
 11
161.25
 21
-57.5
  0
ENDBLK
  5
5A
330
58
100
AcDbEntity
  8
0
100
AcDbBlockEnd
  0
BLOCK
  5
5C
330
5B
100
AcDbEntity
  8
0
100
AcDbBlockBegin
  2
*D26
 70
    1
 10
0
 20
0
  3
*D26
  1

  0
LINE
  5
C1
100
AcDbEntity
  8
dimensions
  6
ByBlock
 62
    0
370
   -2
100
AcDbLine
 10
474.7440059982288
 20
-2.429831541509714
 11
477.2962039397809
 21
-8.114272411330187
  0
LINE
  5
C2
100
AcDbEntity
  8
dimensions
  6
ByBlock
 62
    0
370
   -2
100
AcDbLine
 10
486
 20
13.125
 11
486
 21
-6.25
  0
ARC
  5
C3
100
AcDbEntity
  8
dimensions
  6
ByBlock
 62
    0
370
   -2
100
AcDbCircle
 10
486
 20
-27.50000000000017
 40
20.00000000000017
100
AcDbArc
 50
114.1791071466892
 51
90
  0
SOLID
  5
C4
100
AcDbEntity
  8
dimensions
  6
ByBlock
 62
    0
370
   -2
100
AcDbTrace
 10
477.8081919433232
 20
-9.254609328310764
 30
0
 11
475.7898210211976
 21
-10.7874079899147
 31
0
 12
475.4020348658202
 22
-10.05066274026199
 32
0
 13
475.4020348658202
 23
-10.05066274026199
 33
0
  0
SOLID
  5
C5
100
AcDbEntity
  8
dimensions
  6
ByBlock
 62
    0
370
   -2
100
AcDbTrace
 10
486
 20
-7.5
 30
0
 11
488.521119632503
 21
-7.240676428173123
 31
0
 12
488.4691179209975
 22
-8.071620161038771
 32
0
 13
488.4691179209975
 23
-8.071620161038771
 33
0
  0
MTEXT
  5
C6
100
AcDbEntity
  8
dimensions
  6
CONTINUOUS
 62
    0
370
   -2
100
AcDbMText
 10
490.0579055323695
 20
-46.44529038284653
 30
0
 40
8
 41
21.33333333333482
 71
    8
 72
    1
  1
336%%D
  7
standard
210
0
220
0
230
1
 50
12.08955357334463
 73
    2
 44
1
  0
ENDBLK
  5
5D
330
5B
100
AcDbEntity
  8
0
100
AcDbBlockEnd
  0
BLOCK
  5
5F
330
5E
100
AcDbEntity
  8
0
100
AcDbBlockBegin
  2
*D24
 70
    1
 10
0
 20
0
  3
*D24
  1

  0
LINE
  5
C7
100
AcDbEntity
  8
dimensions
  6
ByBlock
 62
    0
370
   -2
100
AcDbLine
 10
108.5
 20
-40
 11
122.5
 21
-40
  0
SOLID
  5
C8
100
AcDbEntity
  8
dimensions
  6
ByBlock
 62
    0
370
   -2
100
AcDbTrace
 10
113.5
 20
-40
 30
0
 11
111
 21
-40.41628465777284
 31
0
 12
111
 22
-39.58371534222716
 32
0
 13
111
 23
-39.58371534222716
 33
0
  0
SOLID
  5
C9
100
AcDbEntity
  8
dimensions
  6
ByBlock
 62
    0
370
   -2
100
AcDbTrace
 10
117.5
 20
-40
 30
0
 11
120
 21
-39.58371534222716
 31
0
 12
120
 22
-40.41628465777284
 32
0
 13
120
 23
-40.41628465777284
 33
0
  0
MTEXT
  5
CA
100
AcDbEntity
  8
dimensions
  6
CONTINUOUS
 62
    0
370
   -2
100
AcDbMText
 10
120.3472222222222
 20
-35.375
 30
0
 40
8
 41
4.444444444444445
 71
    5
 72
    1
  1
4
  7
standard
210
0
220
0
230
1
 50
0
 73
    2
 44
1
  0
LINE
  5
CB
100
AcDbEntity
  8
dimensions
  6
ByBlock
 62
    0
370
   -2
100
AcDbLine
 10
113.5
 20
-56.875
 11
113.5
 21
-38.75
  0
LINE
  5
CC
100
AcDbEntity
  8
dimensions
  6
ByBlock
 62
    0
370
   -2
100
AcDbLine
 10
117.5
 20
-56.875
 11
117.5
 21
-38.75
  0
ENDBLK
  5
60
330
5E
100
AcDbEntity
  8
0
100
AcDbBlockEnd
  0
BLOCK
  5
62
330
61
100
AcDbEntity
  8
0
100
AcDbBlockBegin
  2
*D30
 70
    1
 10
0
 20
0
  3
*D30
  1

  0
SOLID
  5
CD
100
AcDbEntity
  8
dimensions
  6
ByBlock
 62
    0
370
   -2
100
AcDbTrace
 10
226.3377515820424
 20
-146.2258223105279
 30
0
 11
227.2464919086712
 21
-143.8599220727631
 31
0
 12
227.9641118882305
 22
-144.2820514725038
 32
0
 13
227.9641118882305
 23
-144.2820514725038
 33
0
  0
LINE
  5
CE
100
AcDbEntity
  8
dimensions
  6
ByBlock
 62
    0
370
   -2
100
AcDbLine
 10
220
 20
-157
 11
237.6612010752917
 21
-126.9759581720039
  0
MTEXT
  5
CF
100
AcDbEntity
  8
dimensions
  6
CONTINUOUS
 62
    0
370
   -2
100
AcDbMText
 10
240
 20
-140
 30
0
 40
8
 41
17.33333333333383
 71
    5
 72
    1
  1
12,5
  7
standard
210
0
220
0
230
1
 50
59.53445508054023
 73
    2
 44
1
  0
ENDBLK
  5
63
330
61
100
AcDbEntity
  8
0
100
AcDbBlockEnd
  0
BLOCK
  5
65
330
64
100
AcDbEntity
  8
0
100
AcDbBlockBegin
  2
*D22
 70
    1
 10
0
 20
0
  3
*D22
  1

  0
SOLID
  5
D0
100
AcDbEntity
  8
dimensions
  6
ByBlock
 62
    0
370
   -2
100
AcDbTrace
 10
224
 20
-130
 30
0
 11
226.5
 21
-129.5837153422272
 31
0
 12
226.5
 22
-130.4162846577728
 32
0
 13
226.5
 23
-130.4162846577728
 33
0
  0
LINE
  5
D1
100
AcDbEntity
  8
dimensions
  6
ByBlock
 62
    0
370
   -2
100
AcDbLine
 10
220
 20
-130
 11
233.4444444444445
 21
-130
  0
MTEXT
  5
D2
100
AcDbEntity
  8
dimensions
  6
CONTINUOUS
 62
    0
370
   -2
100
AcDbMText
 10
228.7222222222222
 20
-125.375
 30
0
 40
8
 41
4.444444444444445
 71
    5
 72
    1
  1
4
  7
standard
210
0
220
0
230
1
 50
0
 73
    2
 44
1
  0
ENDBLK
  5
66
330
64
100
AcDbEntity
  8
0
100
AcDbBlockEnd
  0
BLOCK
  5
68
330
67
100
AcDbEntity
  8
0
100
AcDbBlockBegin
  2
*D25
 70
    1
 10
0
 20
0
  3
*D25
  1

  0
LINE
  5
D3
100
AcDbEntity
  8
dimensions
  6
ByBlock
 62
    0
370
   -2
100
AcDbLine
 10
238
 20
-100
 11
252
 21
-100
  0
SOLID
  5
D4
100
AcDbEntity
  8
dimensions
  6
ByBlock
 62
    0
370
   -2
100
AcDbTrace
 10
243
 20
-100
 30
0
 11
240.5
 21
-100.4162846577728
 31
0
 12
240.5
 22
-99.58371534222717
 32
0
 13
240.5
 23
-99.58371534222717
 33
0
  0
SOLID
  5
D5
100
AcDbEntity
  8
dimensions
  6
ByBlock
 62
    0
370
   -2
100
AcDbTrace
 10
247
 20
-100
 30
0
 11
249.5
 21
-99.58371534222717
 31
0
 12
249.5
 22
-100.4162846577728
 32
0
 13
249.5
 23
-100.4162846577728
 33
0
  0
MTEXT
  5
D6
100
AcDbEntity
  8
dimensions
  6
CONTINUOUS
 62
    0
370
   -2
100
AcDbMText
 10
249.8472222222222
 20
-95.375
 30
0
 40
8
 41
4.444444444444445
 71
    5
 72
    1
  1
4
  7
standard
210
0
220
0
230
1
 50
0
 73
    2
 44
1
  0
LINE
  5
D7
100
AcDbEntity
  8
dimensions
  6
ByBlock
 62
    0
370
   -2
100
AcDbLine
 10
243
 20
-111.375
 11
243
 21
-98.75
  0
LINE
  5
D8
100
AcDbEntity
  8
dimensions
  6
ByBlock
 62
    0
370
   -2
100
AcDbLine
 10
247
 20
-111.375
 11
247
 21
-98.75
  0
ENDBLK
  5
69
330
67
100
AcDbEntity
  8
0
100
AcDbBlockEnd
  0
BLOCK
  5
6B
330
6A
100
AcDbEntity
  8
0
100
AcDbBlockBegin
  2
*D27
 70
    1
 10
0
 20
0
  3
*D27
  1

  0
LINE
  5
D9
100
AcDbEntity
  8
dimensions
  6
ByBlock
 62
    0
370
   -2
100
AcDbLine
 10
494.3080582617568
 20
118.1919417382432
 11
499.8666085407968
 21
112.6333914592032
  0
LINE
  5
DA
100
AcDbEntity
  8
dimensions
  6
ByBlock
 62
    0
370
   -2
100
AcDbLine
 10
515
 20
138.125
 11
515
 21
118.9018474463063
  0
ARC
  5
DB
100
AcDbEntity
  8
dimensions
  6
ByBlock
 62
    0
370
   -2
100
AcDbCircle
 10
515
 20
97.49999999999997
 40
20.15184744630632
100
AcDbArc
 50
90
 51
135
  0
SOLID
  5
DC
100
AcDbEntity
  8
dimensions
  6
ByBlock
 62
    0
370
   -2
100
AcDbTrace
 10
500.75049201728
 20
111.74950798272
 30
0
 11
502.3488972559396
 21
113.7163312104969
 31
0
 12
502.8999864102158
 22
113.0922539642946
 32
0
 13
502.8999864102158
 23
113.0922539642946
 33
0
  0
SOLID
  5
DD
100
AcDbEntity
  8
dimensions
  6
ByBlock
 62
    0
370
   -2
100
AcDbTrace
 10
515
 20
117.6518474463063
 30
0
 11
512.5306131496503
 21
117.0813901739213
 31
0
 12
512.4790027749035
 22
117.9123583047222
 32
0
 13
512.4790027749035
 23
117.9123583047222
 33
0
  0
MTEXT
  5
DE
100
AcDbEntity
  8
dimensions
  6
CONTINUOUS
 62
    0
370
   -2
100
AcDbMText
 10
507.0490447055217
 20
116.6953041057518
 30
0
 40
8
 41
16.0000000000005
 71
    8
 72
    1
  1
45%%D
  7
standard
210
0
220
0
230
1
 50
382.5
 73
    2
 44
1
  0
ENDBLK
  5
6C
330
6A
100
AcDbEntity
  8
0
100
AcDbBlockEnd
  0
BLOCK
  5
6E
330
6D
100
AcDbEntity
  8
0
100
AcDbBlockBegin
  2
*D13
 70
    1
 10
0
 20
0
  3
*D13
  1

  0
LINE
  5
DF
100
AcDbEntity
  8
dimensions
  6
ByBlock
 62
    0
370
   -2
100
AcDbLine
 10
-27.50000000000158
 20
-39.37499999999848
 11
-27.50000000000158
 21
-28.75000000000007
  0
LINE
  5
E0
100
AcDbEntity
  8
dimensions
  6
ByBlock
 62
    0
370
   -2
100
AcDbLine
 10
-31.50000000000158
 20
-39.37499999999848
 11
-31.50000000000158
 21
-28.75000000000007
  0
LINE
  5
E1
100
AcDbEntity
  8
dimensions
  6
ByBlock
 62
    0
370
   -2
100
AcDbLine
 10
-22.50000000000158
 20
-30.00000000000007
 11
-36.50000000000158
 21
-30.00000000000007
  0
SOLID
  5
E2
100
AcDbEntity
  8
dimensions
  6
ByBlock
 62
    0
370
   -2
100
AcDbTrace
 10
-27.50000000000158
 20
-30.00000000000007
 30
0
 11
-25.00000000000158
 21
-29.58371534222723
 31
0
 12
-25.00000000000158
 22
-30.41628465777291
 32
0
 13
-25.00000000000158
 23
-30.41628465777291
 33
0
  0
SOLID
  5
E3
100
AcDbEntity
  8
dimensions
  6
ByBlock
 62
    0
370
   -2
100
AcDbTrace
 10
-31.50000000000158
 20
-30.00000000000007
 30
0
 11
-34.00000000000158
 21
-30.41628465777291
 31
0
 12
-34.00000000000158
 22
-29.58371534222723
 32
0
 13
-34.00000000000158
 23
-29.58371534222723
 33
0
  0
MTEXT
  5
E4
100
AcDbEntity
  8
dimensions
  6
CONTINUOUS
 62
    0
370
   -2
100
AcDbMText
 10
-24.65277777777936
 20
-25.37500000000007
 30
0
 40
8
 41
4.444444444444445
 71
    5
 72
    1
  1
4
  7
standard
210
0
220
0
230
1
 50
360
 73
    2
 44
1
  0
ENDBLK
  5
6F
330
6D
100
AcDbEntity
  8
0
100
AcDbBlockEnd
  0
BLOCK
  5
71
330
70
100
AcDbEntity
  8
0
100
AcDbBlockBegin
  2
*D8
 70
    1
 10
0
 20
0
  3
*D8
  1

  0
SOLID
  5
E5
100
AcDbEntity
  8
dimensions
  6
ByBlock
 62
    0
370
   -2
100
AcDbTrace
 10
-10.64479871945291
 20
-154.6323523329422
 30
0
 11
-8.120491140616192
 21
-154.8585473013313
 31
0
 12
-8.329993764348243
 22
-155.6643266233777
 32
0
 13
-8.329993764348243
 23
-155.6643266233777
 33
0
  0
LINE
  5
E6
100
AcDbEntity
  8
dimensions
  6
ByBlock
 62
    0
370
   -2
100
AcDbLine
 10
-15.00000000000013
 20
-153.5
 11
7.528757241349654
 21
-159.3574768827505
  0
MTEXT
  5
E7
100
AcDbEntity
  8
dimensions
  6
CONTINUOUS
 62
    0
370
   -2
100
AcDbMText
 10
-0.3942141746388121
 20
-152.5187355139506
 30
0
 40
8
 41
13.77777777777827
 71
    5
 72
    1
  1
4,5
  7
standard
210
0
220
0
230
1
 50
345.4257838019624
 73
    2
 44
1
  0
ENDBLK
  5
72
330
70
100
AcDbEntity
  8
0
100
AcDbBlockEnd
  0
BLOCK
  5
74
330
73
100
AcDbEntity
  8
0
100
AcDbBlockBegin
  2
*D18
 70
    1
 10
0
 20
0
  3
*D18
  1

  0
LINE
  5
E8
100
AcDbEntity
  8
dimensions
  6
ByBlock
 62
    0
370
   -2
100
AcDbLine
 10
160
 20
-150
 11
160
 21
-130.0000000000001
  0
SOLID
  5
E9
100
AcDbEntity
  8
dimensions
  6
ByBlock
 62
    0
370
   -2
100
AcDbTrace
 10
160
 20
-150
 30
0
 11
159.5837153422272
 21
-147.5
 31
0
 12
160.4162846577728
 22
-147.5
 32
0
 13
160.4162846577728
 23
-147.5
 33
0
  0
SOLID
  5
EA
100
AcDbEntity
  8
dimensions
  6
ByBlock
 62
    0
370
   -2
100
AcDbTrace
 10
160
 20
-130.0000000000001
 30
0
 11
160.4162846577728
 21
-132.5000000000001
 31
0
 12
159.5837153422272
 22
-132.5000000000001
 32
0
 13
159.5837153422272
 23
-132.5000000000001
 33
0
  0
MTEXT
  5
EB
100
AcDbEntity
  8
dimensions
  6
CONTINUOUS
 62
    0
370
   -2
100
AcDbMText
 10
155.375
 20
-140.0000000000001
 30
0
 40
8
 41
9.777777777777777
 71
    5
 72
    1
  1
20
  7
standard
210
0
220
0
230
1
 50
90
 73
    2
 44
1
  0
LINE
  5
EC
100
AcDbEntity
  8
dimensions
  6
ByBlock
 62
    0
370
   -2
100
AcDbLine
 10
138.125
 20
-150
 11
161.25
 21
-150
  0
LINE
  5
ED
100
AcDbEntity
  8
dimensions
  6
ByBlock
 62
    0
370
   -2
100
AcDbLine
 10
138.1249999999999
 20
-130.0000000000001
 11
161.25
 21
-130.0000000000001
  0
ENDBLK
  5
75
330
73
100
AcDbEntity
  8
0
100
AcDbBlockEnd
  0
BLOCK
  5
77
330
76
100
AcDbEntity
  8
0
100
AcDbBlockBegin
  2
*D10
 70
    1
 10
0
 20
0
  3
*D10
  1

  0
LINE
  5
EE
100
AcDbEntity
  8
dimensions
  6
ByBlock
 62
    0
370
   -2
100
AcDbLine
 10
-27.5000000000008
 20
-102.3749999999993
 11
-27.50000000000109
 21
-28.75000000000011
  0
LINE
  5
EF
100
AcDbEntity
  8
dimensions
  6
ByBlock
 62
    0
370
   -2
100
AcDbLine
 10
-2.500000000000798
 20
-102.3749999999992
 11
-2.500000000001088
 21
-28.75000000000001
  0
LINE
  5
F0
100
AcDbEntity
  8
dimensions
  6
ByBlock
 62
    0
370
   -2
100
AcDbLine
 10
-27.50000000000109
 20
-30.00000000000011
 11
-2.500000000001083
 21
-30.00000000000001
  0
SOLID
  5
F1
100
AcDbEntity
  8
dimensions
  6
ByBlock
 62
    0
370
   -2
100
AcDbTrace
 10
-27.50000000000109
 20
-30.00000000000011
 30
0
 11
-25.00000000000109
 21
-29.58371534222726
 31
0
 12
-25.00000000000109
 22
-30.41628465777294
 32
0
 13
-25.00000000000109
 23
-30.41628465777294
 33
0
  0
SOLID
  5
F2
100
AcDbEntity
  8
dimensions
  6
ByBlock
 62
    0
370
   -2
100
AcDbTrace
 10
-2.500000000001083
 20
-30.00000000000001
 30
0
 11
-5.000000000001082
 21
-30.41628465777286
 31
0
 12
-5.000000000001085
 22
-29.58371534222718
 32
0
 13
-5.000000000001085
 23
-29.58371534222718
 33
0
  0
MTEXT
  5
F3
100
AcDbEntity
  8
dimensions
  6
CONTINUOUS
 62
    0
370
   -2
100
AcDbMText
 10
-15.0000000000011
 20
-25.37500000000006
 30
0
 40
8
 41
9.777777777778272
 71
    5
 72
    1
  1
25
  7
standard
210
0
220
0
230
1
 50
2.289999370653732e-13
 73
    2
 44
1
  0
ENDBLK
  5
78
330
76
100
AcDbEntity
  8
0
100
AcDbBlockEnd
  0
BLOCK
  5
7A
330
79
100
AcDbEntity
  8
0
100
AcDbBlockBegin
  2
*D32
 70
    1
 10
0
 20
0
  3
*D32
  1

  0
LINE
  5
F4
100
AcDbEntity
  8
dimensions
  6
ByBlock
 62
    0
370
   -2
100
AcDbLine
 10
197
 20
-165
 11
212.5
 21
-165
  0
SOLID
  5
F5
100
AcDbEntity
  8
dimensions
  6
ByBlock
 62
    0
370
   -2
100
AcDbTrace
 10
202
 20
-165
 30
0
 11
199.5
 21
-165.4162846577728
 31
0
 12
199.5
 22
-164.5837153422272
 32
0
 13
199.5
 23
-164.5837153422272
 33
0
  0
SOLID
  5
F6
100
AcDbEntity
  8
dimensions
  6
ByBlock
 62
    0
370
   -2
100
AcDbTrace
 10
207.5
 20
-165
 30
0
 11
210
 21
-164.5837153422272
 31
0
 12
210
 22
-165.4162846577728
 32
0
 13
210
 23
-165.4162846577728
 33
0
  0
MTEXT
  5
F7
100
AcDbEntity
  8
dimensions
  6
CONTINUOUS
 62
    0
370
   -2
100
AcDbMText
 10
209.8194444444449
 20
-170
 30
0
 40
8
 41
12.88888888888988
 71
    5
 72
    1
  1
5,5
  7
standard
210
0
220
0
230
1
 50
0
 73
    2
 44
1
  0
LINE
  5
F8
100
AcDbEntity
  8
dimensions
  6
ByBlock
 62
    0
370
   -2
100
AcDbLine
 10
202
 20
-157.625
 11
202
 21
-166.25
  0
LINE
  5
F9
100
AcDbEntity
  8
dimensions
  6
ByBlock
 62
    0
370
   -2
100
AcDbLine
 10
207.5
 20
-157.625
 11
207.5
 21
-166.25
  0
ENDBLK
  5
7B
330
79
100
AcDbEntity
  8
0
100
AcDbBlockEnd
  0
BLOCK
  5
7D
330
7C
100
AcDbEntity
  8
0
100
AcDbBlockBegin
  2
*D31
 70
    1
 10
0
 20
0
  3
*D31
  1

  0
LINE
  5
FA
100
AcDbEntity
  8
dimensions
  6
ByBlock
 62
    0
370
   -2
100
AcDbLine
 10
227.5
 20
-165
 11
243
 21
-165
  0
SOLID
  5
FB
100
AcDbEntity
  8
dimensions
  6
ByBlock
 62
    0
370
   -2
100
AcDbTrace
 10
232.5
 20
-165
 30
0
 11
230
 21
-165.4162846577728
 31
0
 12
230
 22
-164.5837153422272
 32
0
 13
230
 23
-164.5837153422272
 33
0
  0
SOLID
  5
FC
100
AcDbEntity
  8
dimensions
  6
ByBlock
 62
    0
370
   -2
100
AcDbTrace
 10
238
 20
-165
 30
0
 11
240.5
 21
-164.5837153422272
 31
0
 12
240.5
 22
-165.4162846577728
 32
0
 13
240.5
 23
-165.4162846577728
 33
0
  0
MTEXT
  5
FD
100
AcDbEntity
  8
dimensions
  6
CONTINUOUS
 62
    0
370
   -2
100
AcDbMText
 10
239.8194444444449
 20
-170
 30
0
 40
8
 41
12.88888888888988
 71
    5
 72
    1
  1
5,5
  7
standard
210
0
220
0
230
1
 50
0
 73
    2
 44
1
  0
LINE
  5
FE
100
AcDbEntity
  8
dimensions
  6
ByBlock
 62
    0
370
   -2
100
AcDbLine
 10
232.5
 20
-157.625
 11
232.5
 21
-166.25
  0
LINE
  5
FF
100
AcDbEntity
  8
dimensions
  6
ByBlock
 62
    0
370
   -2
100
AcDbLine
 10
238
 20
-157.625
 11
238
 21
-166.25
  0
ENDBLK
  5
7E
330
7C
100
AcDbEntity
  8
0
100
AcDbBlockEnd
  0
BLOCK
  5
80
330
7F
100
AcDbEntity
  8
0
100
AcDbBlockBegin
  2
*D15
 70
    1
 10
0
 20
0
  3
*D15
  1

  0
LINE
  5
100
100
AcDbEntity
  8
dimensions
  6
ByBlock
 62
    0
370
   -2
100
AcDbLine
 10
-40
 20
-153.5
 11
-40
 21
-166
  0
SOLID
  5
101
100
AcDbEntity
  8
dimensions
  6
ByBlock
 62
    0
370
   -2
100
AcDbTrace
 10
-40
 20
-153.5
 30
0
 11
-39.58371534222716
 21
-156
 31
0
 12
-40.41628465777284
 22
-156
 32
0
 13
-40.41628465777284
 23
-156
 33
0
  0
SOLID
  5
102
100
AcDbEntity
  8
dimensions
  6
ByBlock
 62
    0
370
   -2
100
AcDbTrace
 10
-40
 20
-166
 30
0
 11
-40.41628465777284
 21
-163.5
 31
0
 12
-39.58371534222716
 22
-163.5
 32
0
 13
-39.58371534222716
 23
-163.5
 33
0
  0
MTEXT
  5
103
100
AcDbEntity
  8
dimensions
  6
CONTINUOUS
 62
    0
370
   -2
100
AcDbMText
 10
-44.625
 20
-144.2083333333331
 30
0
 40
8
 41
17.33333333333383
 71
    5
 72
    1
  1
12,5
  7
standard
210
0
220
0
230
1
 50
90
 73
    2
 44
1
  0
LINE
  5
104
100
AcDbEntity
  8
dimensions
  6
ByBlock
 62
    0
370
   -2
100
AcDbLine
 10
-15.62500000000013
 20
-153.5
 11
-41.25
 21
-153.5
  0
LINE
  5
105
100
AcDbEntity
  8
dimensions
  6
ByBlock
 62
    0
370
   -2
100
AcDbLine
 10
-28.12500000000001
 20
-166
 11
-41.25
 21
-166
  0
ENDBLK
  5
81
330
7F
100
AcDbEntity
  8
0
100
AcDbBlockEnd
  0
BLOCK
  5
83
330
82
100
AcDbEntity
  8
0
100
AcDbBlockBegin
  2
*D2
 70
    1
 10
0
 20
0
  3
*D2
  1

  0
LINE
  5
106
100
AcDbEntity
  8
dimensions
  6
ByBlock
 62
    0
370
   -2
100
AcDbLine
 10
133.4999999999999
 20
-94.37500000000003
 11
133.4999999999995
 21
-38.75000000000005
  0
LINE
  5
107
100
AcDbEntity
  8
dimensions
  6
ByBlock
 62
    0
370
   -2
100
AcDbLine
 10
141.4999999999999
 20
-94.37499999999997
 11
141.4999999999995
 21
-38.74999999999999
  0
LINE
  5
108
100
AcDbEntity
  8
dimensions
  6
ByBlock
 62
    0
370
   -2
100
AcDbLine
 10
133.4999999999995
 20
-40.00000000000005
 11
141.4999999999995
 21
-39.99999999999999
  0
SOLID
  5
109
100
AcDbEntity
  8
dimensions
  6
ByBlock
 62
    0
370
   -2
100
AcDbTrace
 10
133.4999999999995
 20
-40.00000000000005
 30
0
 11
135.9999999999995
 21
-39.58371534222719
 31
0
 12
135.9999999999995
 22
-40.41628465777287
 32
0
 13
135.9999999999995
 23
-40.41628465777287
 33
0
  0
SOLID
  5
10A
100
AcDbEntity
  8
dimensions
  6
ByBlock
 62
    0
370
   -2
100
AcDbTrace
 10
141.4999999999995
 20
-39.99999999999999
 30
0
 11
138.9999999999995
 21
-40.41628465777285
 31
0
 12
138.9999999999995
 22
-39.58371534222717
 32
0
 13
138.9999999999995
 23
-39.58371534222717
 33
0
  0
MTEXT
  5
10B
100
AcDbEntity
  8
dimensions
  6
CONTINUOUS
 62
    0
370
   -2
100
AcDbMText
 10
137.4999999999995
 20
-35.37500000000002
 30
0
 40
8
 41
3.555555555555555
 71
    5
 72
    1
  1
8
  7
standard
210
0
220
0
230
1
 50
4.071109992273301e-13
 73
    2
 44
1
  0
ENDBLK
  5
84
330
82
100
AcDbEntity
  8
0
100
AcDbBlockEnd
  0
BLOCK
  5
86
330
85
100
AcDbEntity
  8
0
100
AcDbBlockBegin
  2
*D11
 70
    1
 10
0
 20
0
  3
*D11
  1

  0
LINE
  5
10C
100
AcDbEntity
  8
dimensions
  6
ByBlock
 62
    0
370
   -2
100
AcDbLine
 10
12.4999999999992
 20
-102.3749999999992
 11
12.49999999999891
 21
-28.7500000000001
  0
LINE
  5
10D
100
AcDbEntity
  8
dimensions
  6
ByBlock
 62
    0
370
   -2
100
AcDbLine
 10
37.4999999999992
 20
-102.3749999999991
 11
37.49999999999891
 21
-28.75
  0
LINE
  5
10E
100
AcDbEntity
  8
dimensions
  6
ByBlock
 62
    0
370
   -2
100
AcDbLine
 10
12.49999999999891
 20
-30.0000000000001
 11
37.49999999999891
 21
-30
  0
SOLID
  5
10F
100
AcDbEntity
  8
dimensions
  6
ByBlock
 62
    0
370
   -2
100
AcDbTrace
 10
12.49999999999891
 20
-30.0000000000001
 30
0
 11
14.99999999999891
 21
-29.58371534222725
 31
0
 12
14.99999999999891
 22
-30.41628465777293
 32
0
 13
14.99999999999891
 23
-30.41628465777293
 33
0
  0
SOLID
  5
110
100
AcDbEntity
  8
dimensions
  6
ByBlock
 62
    0
370
   -2
100
AcDbTrace
 10
37.49999999999891
 20
-30
 30
0
 11
34.99999999999891
 21
-30.41628465777285
 31
0
 12
34.99999999999891
 22
-29.58371534222717
 32
0
 13
34.99999999999891
 23
-29.58371534222717
 33
0
  0
MTEXT
  5
111
100
AcDbEntity
  8
dimensions
  6
CONTINUOUS
 62
    0
370
   -2
100
AcDbMText
 10
24.9999999999989
 20
-25.37500000000005
 30
0
 40
8
 41
9.777777777778272
 71
    5
 72
    1
  1
25
  7
standard
210
0
220
0
230
1
 50
2.289999370653732e-13
 73
    2
 44
1
  0
ENDBLK
  5
87
330
85
100
AcDbEntity
  8
0
100
AcDbBlockEnd
  0
BLOCK
  5
89
330
88
100
AcDbEntity
  8
0
100
AcDbBlockBegin
  2
*D28
 70
    1
 10
0
 20
0
  3
*D28
  1

  0
LINE
  5
112
100
AcDbEntity
  8
dimensions
  6
ByBlock
 62
    0
370
   -2
100
AcDbLine
 10
160
 20
-150
 11
160
 21
-162.5
  0
SOLID
  5
113
100
AcDbEntity
  8
dimensions
  6
ByBlock
 62
    0
370
   -2
100
AcDbTrace
 10
160
 20
-150
 30
0
 11
160.4162846577728
 21
-152.5
 31
0
 12
159.5837153422272
 22
-152.5
 32
0
 13
159.5837153422272
 23
-152.5
 33
0
  0
SOLID
  5
114
100
AcDbEntity
  8
dimensions
  6
ByBlock
 62
    0
370
   -2
100
AcDbTrace
 10
160
 20
-162.5
 30
0
 11
159.5837153422272
 21
-160
 31
0
 12
160.4162846577728
 22
-160
 32
0
 13
160.4162846577728
 23
-160
 33
0
  0
MTEXT
  5
115
100
AcDbEntity
  8
dimensions
  6
CONTINUOUS
 62
    0
370
   -2
100
AcDbMText
 10
170
 20
-157.4583333333331
 30
0
 40
8
 41
17.33333333333383
 71
    5
 72
    1
  1
12,5
  7
standard
210
0
220
0
230
1
 50
90
 73
    2
 44
1
  0
LINE
  5
116
100
AcDbEntity
  8
dimensions
  6
ByBlock
 62
    0
370
   -2
100
AcDbLine
 10
138.125
 20
-150
 11
161.25
 21
-150
  0
LINE
  5
117
100
AcDbEntity
  8
dimensions
  6
ByBlock
 62
    0
370
   -2
100
AcDbLine
 10
138.125
 20
-162.5
 11
161.25
 21
-162.5
  0
ENDBLK
  5
8A
330
88
100
AcDbEntity
  8
0
100
AcDbBlockEnd
  0
BLOCK
  5
8C
330
8B
100
AcDbEntity
  8
0
100
AcDbBlockBegin
  2
*D9
 70
    1
 10
0
 20
0
  3
*D9
  1

  0
LINE
  5
118
100
AcDbEntity
  8
dimensions
  6
ByBlock
 62
    0
370
   -2
100
AcDbLine
 10
-32.12500000000158
 20
-39.99999999999849
 11
-61.25000000000113
 21
-39.99999999999884
  0
LINE
  5
119
100
AcDbEntity
  8
dimensions
  6
ByBlock
 62
    0
370
   -2
100
AcDbLine
 10
-32.12500000000001
 20
-166
 11
-61.24999999999956
 21
-166.0000000000004
  0
LINE
  5
11A
100
AcDbEntity
  8
dimensions
  6
ByBlock
 62
    0
370
   -2
100
AcDbLine
 10
-60.00000000000113
 20
-39.99999999999883
 11
-59.99999999999956
 21
-166.0000000000003
  0
SOLID
  5
11B
100
AcDbEntity
  8
dimensions
  6
ByBlock
 62
    0
370
   -2
100
AcDbTrace
 10
-60.00000000000113
 20
-39.99999999999883
 30
0
 11
-59.58371534222826
 21
-42.49999999999882
 31
0
 12
-60.41628465777394
 22
-42.49999999999883
 32
0
 13
-60.41628465777394
 23
-42.49999999999883
 33
0
  0
SOLID
  5
11C
100
AcDbEntity
  8
dimensions
  6
ByBlock
 62
    0
370
   -2
100
AcDbTrace
 10
-59.99999999999956
 20
-166.0000000000003
 30
0
 11
-60.41628465777243
 21
-163.5000000000003
 31
0
 12
-59.58371534222675
 22
-163.5000000000003
 32
0
 13
-59.58371534222675
 23
-163.5000000000003
 33
0
  0
MTEXT
  5
11D
100
AcDbEntity
  8
dimensions
  6
CONTINUOUS
 62
    0
370
   -2
100
AcDbMText
 10
-64.62500000000034
 20
-102.9999999999996
 30
0
 40
8
 41
14.22222222222272
 71
    5
 72
    1
  1
126
  7
standard
210
0
220
0
230
1
 50
90.00000000000071
 73
    2
 44
1
  0
ENDBLK
  5
8D
330
8B
100
AcDbEntity
  8
0
100
AcDbBlockEnd
  0
BLOCK
  5
8F
330
8E
100
AcDbEntity
  8
0
100
AcDbBlockBegin
  2
*D7
 70
    1
 10
0
 20
0
  3
*D7
  1

  0
SOLID
  5
11E
100
AcDbEntity
  8
dimensions
  6
ByBlock
 62
    0
370
   -2
100
AcDbTrace
 10
-10.6447987194529
 20
-54.63235233294225
 30
0
 11
-8.120491140616187
 21
-54.85854730133141
 31
0
 12
-8.329993764348252
 22
-55.66432662337783
 32
0
 13
-8.329993764348252
 23
-55.66432662337783
 33
0
  0
LINE
  5
11F
100
AcDbEntity
  8
dimensions
  6
ByBlock
 62
    0
370
   -2
100
AcDbLine
 10
-15.00000000000013
 20
-53.49999999999997
 11
7.528757241349579
 21
-59.35747688275087
  0
MTEXT
  5
120
100
AcDbEntity
  8
dimensions
  6
CONTINUOUS
 62
    0
370
   -2
100
AcDbMText
 10
-0.3942141746387662
 20
-52.5187355139508
 30
0
 40
8
 41
13.77777777777827
 71
    5
 72
    1
  1
4,5
  7
standard
210
0
220
0
230
1
 50
345.4257838019614
 73
    2
 44
1
  0
ENDBLK
  5
90
330
8E
100
AcDbEntity
  8
0
100
AcDbBlockEnd
  0
BLOCK
  5
92
330
91
100
AcDbEntity
  8
0
100
AcDbBlockBegin
  2
*D12
 70
    1
 10
0
 20
0
  3
*D12
  1

  0
LINE
  5
121
100
AcDbEntity
  8
dimensions
  6
ByBlock
 62
    0
370
   -2
100
AcDbLine
 10
12.49999999999841
 20
-39.37499999999849
 11
12.49999999999843
 21
-28.75000000000019
  0
LINE
  5
122
100
AcDbEntity
  8
dimensions
  6
ByBlock
 62
    0
370
   -2
100
AcDbLine
 10
8.49999999999841
 20
-39.37499999999848
 11
8.499999999998428
 21
-28.75000000000018
  0
LINE
  5
123
100
AcDbEntity
  8
dimensions
  6
ByBlock
 62
    0
370
   -2
100
AcDbLine
 10
17.49999999999843
 20
-30.0000000000002
 11
3.499999999998426
 21
-30.00000000000017
  0
SOLID
  5
124
100
AcDbEntity
  8
dimensions
  6
ByBlock
 62
    0
370
   -2
100
AcDbTrace
 10
12.49999999999843
 20
-30.00000000000019
 30
0
 11
14.99999999999843
 21
-29.58371534222735
 31
0
 12
14.99999999999843
 22
-30.41628465777303
 32
0
 13
14.99999999999843
 23
-30.41628465777303
 33
0
  0
SOLID
  5
125
100
AcDbEntity
  8
dimensions
  6
ByBlock
 62
    0
370
   -2
100
AcDbTrace
 10
8.499999999998426
 20
-30.00000000000018
 30
0
 11
5.999999999998425
 21
-30.41628465777302
 31
0
 12
5.999999999998427
 22
-29.58371534222734
 32
0
 13
5.999999999998427
 23
-29.58371534222734
 33
0
  0
MTEXT
  5
126
100
AcDbEntity
  8
dimensions
  6
CONTINUOUS
 62
    0
370
   -2
100
AcDbMText
 10
15.34722222222066
 20
-25.3750000000002
 30
0
 40
8
 41
4.444444444444445
 71
    5
 72
    1
  1
4
  7
standard
210
0
220
0
230
1
 50
359.9999999999999
 73
    2
 44
1
  0
ENDBLK
  5
93
330
91
100
AcDbEntity
  8
0
100
AcDbBlockEnd
  0
BLOCK
  5
95
330
94
100
AcDbEntity
  8
0
100
AcDbBlockBegin
  2
*D1
 70
    1
 10
0
 20
0
  3
*D1
  1

  0
LINE
  5
127
100
AcDbEntity
  8
dimensions
  6
ByBlock
 62
    0
370
   -2
100
AcDbLine
 10
112.875
 20
-57.5
 11
98.74999999999997
 21
-57.5
  0
LINE
  5
128
100
AcDbEntity
  8
dimensions
  6
ByBlock
 62
    0
370
   -2
100
AcDbLine
 10
112.875
 20
-162.5
 11
98.74999999999997
 21
-162.5
  0
LINE
  5
129
100
AcDbEntity
  8
dimensions
  6
ByBlock
 62
    0
370
   -2
100
AcDbLine
 10
99.99999999999997
 20
-57.5
 11
99.99999999999997
 21
-162.5
  0
SOLID
  5
12A
100
AcDbEntity
  8
dimensions
  6
ByBlock
 62
    0
370
   -2
100
AcDbTrace
 10
99.99999999999997
 20
-57.5
 30
0
 11
100.4162846577728
 21
-60
 31
0
 12
99.58371534222714
 22
-60
 32
0
 13
99.58371534222714
 23
-60
 33
0
  0
SOLID
  5
12B
100
AcDbEntity
  8
dimensions
  6
ByBlock
 62
    0
370
   -2
100
AcDbTrace
 10
99.99999999999997
 20
-162.5
 30
0
 11
99.58371534222714
 21
-160
 31
0
 12
100.4162846577728
 22
-160
 32
0
 13
100.4162846577728
 23
-160
 33
0
  0
MTEXT
  5
12C
100
AcDbEntity
  8
dimensions
  6
CONTINUOUS
 62
    0
370
   -2
100
AcDbMText
 10
95.37499999999997
 20
-110
 30
0
 40
8
 41
14.22222222222272
 71
    5
 72
    1
  1
105
  7
standard
210
0
220
0
230
1
 50
90
 73
    2
 44
1
  0
ENDBLK
  5
96
330
94
100
AcDbEntity
  8
0
100
AcDbBlockEnd
  0
BLOCK
  5
98
330
97
100
AcDbEntity
  8
0
100
AcDbBlockBegin
  2
*D5
 70
    1
 10
0
 20
0
  3
*D5
  1

  0
SOLID
  5
12D
100
AcDbEntity
  8
dimensions
  6
ByBlock
 62
    0
370
   -2
100
AcDbTrace
 10
28.87129002715309
 20
-154.5065354070598
 30
0
 11
31.39559760598981
 21
-154.732730375449
 31
0
 12
31.18609498225774
 22
-155.5385096974954
 32
0
 13
31.18609498225774
 23
-155.5385096974954
 33
0
  0
LINE
  5
12E
100
AcDbEntity
  8
dimensions
  6
ByBlock
 62
    0
370
   -2
100
AcDbLine
 10
25
 20
-153.5
 11
38.01183592459788
 21
-156.8830773403954
  0
MTEXT
  5
12F
100
AcDbEntity
  8
dimensions
  6
CONTINUOUS
 62
    0
370
   -2
100
AcDbMText
 10
34.60536954028838
 20
-151.2186272798319
 30
0
 40
8
 41
4.444444444444445
 71
    5
 72
    1
  1
4
  7
standard
210
0
220
0
230
1
 50
345.4257838019614
 73
    2
 44
1
  0
ENDBLK
  5
99
330
97
100
AcDbEntity
  8
0
100
AcDbBlockEnd
  0
BLOCK
  5
9B
330
9A
100
AcDbEntity
  8
0
100
AcDbBlockBegin
  2
*D20
 70
    1
 10
0
 20
0
  3
*D20
  1

  0
LINE
  5
130
100
AcDbEntity
  8
dimensions
  6
ByBlock
 62
    0
370
   -2
100
AcDbLine
 10
190
 20
-157
 11
190
 21
-112
  0
SOLID
  5
131
100
AcDbEntity
  8
dimensions
  6
ByBlock
 62
    0
370
   -2
100
AcDbTrace
 10
190
 20
-157
 30
0
 11
189.5837153422272
 21
-154.5
 31
0
 12
190.4162846577728
 22
-154.5
 32
0
 13
190.4162846577728
 23
-154.5
 33
0
  0
SOLID
  5
132
100
AcDbEntity
  8
dimensions
  6
ByBlock
 62
    0
370
   -2
100
AcDbTrace
 10
190
 20
-112
 30
0
 11
190.4162846577728
 21
-114.5
 31
0
 12
189.5837153422272
 22
-114.5
 32
0
 13
189.5837153422272
 23
-114.5
 33
0
  0
MTEXT
  5
133
100
AcDbEntity
  8
dimensions
  6
CONTINUOUS
 62
    0
370
   -2
100
AcDbMText
 10
185.375
 20
-134.5
 30
0
 40
8
 41
10.66666666666716
 71
    5
 72
    1
  1
45
  7
standard
210
0
220
0
230
1
 50
90
 73
    2
 44
1
  0
LINE
  5
134
100
AcDbEntity
  8
dimensions
  6
ByBlock
 62
    0
370
   -2
100
AcDbLine
 10
242.375
 20
-157
 11
188.75
 21
-157
  0
LINE
  5
135
100
AcDbEntity
  8
dimensions
  6
ByBlock
 62
    0
370
   -2
100
AcDbLine
 10
242.375
 20
-112
 11
188.75
 21
-112
  0
ENDBLK
  5
9C
330
9A
100
AcDbEntity
  8
0
100
AcDbBlockEnd
  0
BLOCK
  5
9E
330
9D
100
AcDbEntity
  8
0
100
AcDbBlockBegin
  2
*D16
 70
    1
 10
0
 20
0
  3
*D16
  1

  0
LINE
  5
136
100
AcDbEntity
  8
dimensions
  6
ByBlock
 62
    0
370
   -2
100
AcDbLine
 10
-39.99999999999999
 20
-53.49999999999997
 11
-40
 21
-153.5
  0
SOLID
  5
137
100
AcDbEntity
  8
dimensions
  6
ByBlock
 62
    0
370
   -2
100
AcDbTrace
 10
-39.99999999999999
 20
-53.49999999999997
 30
0
 11
-39.58371534222715
 21
-55.99999999999997
 31
0
 12
-40.41628465777283
 22
-55.99999999999997
 32
0
 13
-40.41628465777283
 23
-55.99999999999997
 33
0
  0
SOLID
  5
138
100
AcDbEntity
  8
dimensions
  6
ByBlock
 62
    0
370
   -2
100
AcDbTrace
 10
-40
 20
-153.5
 30
0
 11
-40.41628465777284
 21
-151
 31
0
 12
-39.58371534222716
 22
-151
 32
0
 13
-39.58371534222716
 23
-151
 33
0
  0
MTEXT
  5
139
100
AcDbEntity
  8
dimensions
  6
CONTINUOUS
 62
    0
370
   -2
100
AcDbMText
 10
-44.625
 20
-103.5
 30
0
 40
8
 41
14.22222222222222
 71
    5
 72
    1
  1
100
  7
standard
210
0
220
0
230
1
 50
90
 73
    2
 44
1
  0
LINE
  5
13A
100
AcDbEntity
  8
dimensions
  6
ByBlock
 62
    0
370
   -2
100
AcDbLine
 10
-15.62500000000013
 20
-53.49999999999997
 11
-41.24999999999999
 21
-53.49999999999997
  0
LINE
  5
13B
100
AcDbEntity
  8
dimensions
  6
ByBlock
 62
    0
370
   -2
100
AcDbLine
 10
-15.62500000000013
 20
-153.5
 11
-41.25
 21
-153.5
  0
ENDBLK
  5
9F
330
9D
100
AcDbEntity
  8
0
100
AcDbBlockEnd
  0
BLOCK
  5
A1
330
A0
100
AcDbEntity
  8
0
100
AcDbBlockBegin
  2
*D14
 70
    1
 10
0
 20
0
  3
*D14
  1

  0
LINE
  5
13C
100
AcDbEntity
  8
dimensions
  6
ByBlock
 62
    0
370
   -2
100
AcDbLine
 10
-40
 20
-39.99999999999848
 11
-40
 21
-53.49999999999997
  0
SOLID
  5
13D
100
AcDbEntity
  8
dimensions
  6
ByBlock
 62
    0
370
   -2
100
AcDbTrace
 10
-40
 20
-39.99999999999848
 30
0
 11
-39.58371534222716
 21
-42.49999999999848
 31
0
 12
-40.41628465777284
 22
-42.49999999999848
 32
0
 13
-40.41628465777284
 23
-42.49999999999848
 33
0
  0
SOLID
  5
13E
100
AcDbEntity
  8
dimensions
  6
ByBlock
 62
    0
370
   -2
100
AcDbTrace
 10
-40
 20
-53.49999999999997
 30
0
 11
-40.41628465777284
 21
-50.99999999999997
 31
0
 12
-39.58371534222716
 22
-50.99999999999997
 32
0
 13
-39.58371534222716
 23
-50.99999999999997
 33
0
  0
MTEXT
  5
13F
100
AcDbEntity
  8
dimensions
  6
CONTINUOUS
 62
    0
370
   -2
100
AcDbMText
 10
-44.625
 20
-30.70833333333132
 30
0
 40
8
 41
17.33333333333432
 71
    5
 72
    1
  1
13,5
  7
standard
210
0
220
0
230
1
 50
90
 73
    2
 44
1
  0
LINE
  5
140
100
AcDbEntity
  8
dimensions
  6
ByBlock
 62
    0
370
   -2
100
AcDbLine
 10
-32.12500000000158
 20
-39.99999999999848
 11
-41.25
 21
-39.99999999999848
  0
LINE
  5
141
100
AcDbEntity
  8
dimensions
  6
ByBlock
 62
    0
370
   -2
100
AcDbLine
 10
-15.62500000000013
 20
-53.49999999999997
 11
-41.25
 21
-53.49999999999997
  0
ENDBLK
  5
A2
330
A0
100
AcDbEntity
  8
0
100
AcDbBlockEnd
  0
BLOCK
  5
A4
330
A3
100
AcDbEntity
  8
0
100
AcDbBlockBegin
  2
*D21
 70
    1
 10
0
 20
0
  3
*D21
  1

  0
LINE
  5
142
100
AcDbEntity
  8
dimensions
  6
ByBlock
 62
    0
370
   -2
100
AcDbLine
 10
200
 20
-130
 11
200
 21
-112
  0
SOLID
  5
143
100
AcDbEntity
  8
dimensions
  6
ByBlock
 62
    0
370
   -2
100
AcDbTrace
 10
200
 20
-130
 30
0
 11
199.5837153422272
 21
-127.5
 31
0
 12
200.4162846577728
 22
-127.5
 32
0
 13
200.4162846577728
 23
-127.5
 33
0
  0
SOLID
  5
144
100
AcDbEntity
  8
dimensions
  6
ByBlock
 62
    0
370
   -2
100
AcDbTrace
 10
200
 20
-112
 30
0
 11
200.4162846577728
 21
-114.5
 31
0
 12
199.5837153422272
 22
-114.5
 32
0
 13
199.5837153422272
 23
-114.5
 33
0
  0
MTEXT
  5
145
100
AcDbEntity
  8
dimensions
  6
CONTINUOUS
 62
    0
370
   -2
100
AcDbMText
 10
195.375
 20
-121
 30
0
 40
8
 41
8
 71
    5
 72
    1
  1
18
  7
standard
210
0
220
0
230
1
 50
90
 73
    2
 44
1
  0
LINE
  5
146
100
AcDbEntity
  8
dimensions
  6
ByBlock
 62
    0
370
   -2
100
AcDbLine
 10
219.375
 20
-130
 11
198.75
 21
-130
  0
LINE
  5
147
100
AcDbEntity
  8
dimensions
  6
ByBlock
 62
    0
370
   -2
100
AcDbLine
 10
241.75
 20
-112
 11
198.75
 21
-112
  0
ENDBLK
  5
A5
330
A3
100
AcDbEntity
  8
0
100
AcDbBlockEnd
  0
BLOCK
  5
A7
330
A6
100
AcDbEntity
  8
0
100
AcDbBlockBegin
  2
*D6
 70
    1
 10
0
 20
0
  3
*D6
  1

  0
SOLID
  5
148
100
AcDbEntity
  8
dimensions
  6
ByBlock
 62
    0
370
   -2
100
AcDbTrace
 10
28.91120965630802
 20
-53.3381163549221
 30
0
 11
31.44293943649733
 21
-53.4548949334357
 31
0
 12
31.26849194650573
 22
-54.26898322006303
 32
0
 13
31.26849194650573
 23
-54.26898322006303
 33
0
  0
LINE
  5
149
100
AcDbEntity
  8
dimensions
  6
ByBlock
 62
    0
370
   -2
100
AcDbLine
 10
24.99999999999841
 20
-52.49999999999848
 11
38.14601023370571
 21
-55.31700219293621
  0
MTEXT
  5
14A
100
AcDbEntity
  8
dimensions
  6
CONTINUOUS
 62
    0
370
   -2
100
AcDbMText
 10
34.4976819803873
 20
-49.80522310882117
 30
0
 40
8
 41
4.444444444444445
 71
    5
 72
    1
  1
4
  7
standard
210
0
220
0
230
1
 50
347.905242922986
 73
    2
 44
1
  0
ENDBLK
  5
A8
330
A6
100
AcDbEntity
  8
0
100
AcDbBlockEnd
  0
BLOCK
  5
AA
330
A9
100
AcDbEntity
  8
0
100
AcDbBlockBegin
  2
*D17
 70
    1
 10
0
 20
0
  3
*D17
  1

  0
LINE
  5
14B
100
AcDbEntity
  8
dimensions
  6
ByBlock
 62
    0
370
   -2
100
AcDbLine
 10
160
 20
-70
 11
160
 21
-130.0000000000001
  0
SOLID
  5
14C
100
AcDbEntity
  8
dimensions
  6
ByBlock
 62
    0
370
   -2
100
AcDbTrace
 10
160
 20
-70
 30
0
 11
160.4162846577728
 21
-72.5
 31
0
 12
159.5837153422272
 22
-72.5
 32
0
 13
159.5837153422272
 23
-72.5
 33
0
  0
SOLID
  5
14D
100
AcDbEntity
  8
dimensions
  6
ByBlock
 62
    0
370
   -2
100
AcDbTrace
 10
160
 20
-130.0000000000001
 30
0
 11
159.5837153422272
 21
-127.5000000000001
 31
0
 12
160.4162846577728
 22
-127.5000000000001
 32
0
 13
160.4162846577728
 23
-127.5000000000001
 33
0
  0
MTEXT
  5
14E
100
AcDbEntity
  8
dimensions
  6
CONTINUOUS
 62
    0
370
   -2
100
AcDbMText
 10
155.375
 20
-100.0000000000001
 30
0
 40
8
 41
9.777777777778272
 71
    5
 72
    1
  1
60
  7
standard
210
0
220
0
230
1
 50
90
 73
    2
 44
1
  0
LINE
  5
14F
100
AcDbEntity
  8
dimensions
  6
ByBlock
 62
    0
370
   -2
100
AcDbLine
 10
138.125
 20
-70
 11
161.25
 21
-70
  0
LINE
  5
150
100
AcDbEntity
  8
dimensions
  6
ByBlock
 62
    0
370
   -2
100
AcDbLine
 10
138.1249999999999
 20
-130.0000000000001
 11
161.25
 21
-130.0000000000001
  0
ENDBLK
  5
AB
330
A9
100
AcDbEntity
  8
0
100
AcDbBlockEnd
  0
BLOCK
  5
AD
330
AC
100
AcDbEntity
  8
0
100
AcDbBlockBegin
  2
*D19
 70
    1
 10
0
 20
0
  3
*D19
  1

  0
LINE
  5
151
100
AcDbEntity
  8
dimensions
  6
ByBlock
 62
    0
370
   -2
100
AcDbLine
 10
200
 20
-130
 11
200
 21
-157
  0
SOLID
  5
152
100
AcDbEntity
  8
dimensions
  6
ByBlock
 62
    0
370
   -2
100
AcDbTrace
 10
200
 20
-130
 30
0
 11
200.4162846577728
 21
-132.5
 31
0
 12
199.5837153422272
 22
-132.5
 32
0
 13
199.5837153422272
 23
-132.5
 33
0
  0
SOLID
  5
153
100
AcDbEntity
  8
dimensions
  6
ByBlock
 62
    0
370
   -2
100
AcDbTrace
 10
200
 20
-157
 30
0
 11
199.5837153422272
 21
-154.5
 31
0
 12
200.4162846577728
 22
-154.5
 32
0
 13
200.4162846577728
 23
-154.5
 33
0
  0
MTEXT
  5
154
100
AcDbEntity
  8
dimensions
  6
CONTINUOUS
 62
    0
370
   -2
100
AcDbMText
 10
195.375
 20
-143.5
 30
0
 40
8
 41
9.777777777777777
 71
    5
 72
    1
  1
27
  7
standard
210
0
220
0
230
1
 50
90
 73
    2
 44
1
  0
LINE
  5
155
100
AcDbEntity
  8
dimensions
  6
ByBlock
 62
    0
370
   -2
100
AcDbLine
 10
219.375
 20
-130
 11
198.75
 21
-130
  0
LINE
  5
156
100
AcDbEntity
  8
dimensions
  6
ByBlock
 62
    0
370
   -2
100
AcDbLine
 10
242.375
 20
-157
 11
198.75
 21
-157
  0
ENDBLK
  5
AE
330
AC
100
AcDbEntity
  8
0
100
AcDbBlockEnd
  0
BLOCK
  5
B0
330
AF
100
AcDbEntity
  8
0
100
AcDbBlockBegin
  2
*D4
 70
    1
 10
0
 20
0
  3
*D4
  1

  0
SOLID
  5
157
100
AcDbEntity
  8
dimensions
  6
ByBlock
 62
    0
370
   -2
100
AcDbTrace
 10
141.5
 20
-150
 30
0
 11
144
 21
-149.5837153422272
 31
0
 12
144
 22
-150.4162846577728
 32
0
 13
144
 23
-150.4162846577728
 33
0
  0
LINE
  5
158
100
AcDbEntity
  8
dimensions
  6
ByBlock
 62
    0
370
   -2
100
AcDbLine
 10
137.5
 20
-150
 11
150.9444444444445
 21
-150
  0
MTEXT
  5
159
100
AcDbEntity
  8
dimensions
  6
CONTINUOUS
 62
    0
370
   -2
100
AcDbMText
 10
146.2222222222222
 20
-145.375
 30
0
 40
8
 41
4.444444444444445
 71
    5
 72
    1
  1
4
  7
standard
210
0
220
0
230
1
 50
0
 73
    2
 44
1
  0
ENDBLK
  5
B1
330
AF
100
AcDbEntity
  8
0
100
AcDbBlockEnd
  0
ENDSEC
  0
SECTION
  2
ENTITIES
  0
ARC
  5
15A
100
AcDbEntity
  8
part1
  6
ByLayer
 62
  256
370
   -1
100
AcDbCircle
 10
24.99999999999852
 20
-52.49999999999848
 40
12.5
100
AcDbArc
 50
0
 51
90
  0
LINE
  5
15B
100
AcDbEntity
  8
part1
  6
ByLayer
 62
  256
370
   -1
100
AcDbLine
 10
37.49999999999852
 20
-52.49999999999832
 11
37.49999999999989
 21
-153.4999999999998
  0
ARC
  5
15C
100
AcDbEntity
  8
part1
  6
ByLayer
 62
  256
370
   -1
100
AcDbCircle
 10
24.99999999999989
 20
-153.5
 40
12.5
100
AcDbArc
 50
270
 51
0
  0
CIRCLE
  5
15D
100
AcDbEntity
  8
part1
  6
ByLayer
 62
  256
370
   -1
100
AcDbCircle
 10
25
 20
-153.5
 40
4
  0
CIRCLE
  5
15E
100
AcDbEntity
  8
part1
  6
ByLayer
 62
  256
370
   -1
100
AcDbCircle
 10
24.99999999999841
 20
-52.49999999999848
 40
4
  0
LINE
  5
15F
100
AcDbEntity
  8
part1
  6
ByLayer
 62
  256
370
   -1
100
AcDbLine
 10
13.49999999999841
 20
-39.99999999999848
 11
24.99999999999852
 21
-39.99999999999848
  0
LINE
  5
160
100
AcDbEntity
  8
part1
  6
ByLayer
 62
  256
370
   -1
100
AcDbLine
 10
12.49999999999841
 20
-40.99999999999849
 11
12.5
 21
-165
  0
LINE
  5
161
100
AcDbEntity
  8
part1
  6
ByLayer
 62
  256
370
   -1
100
AcDbLine
 10
13.5
 20
-166
 11
24.99999999999989
 21
-166
  0
LINE
  5
162
100
AcDbEntity
  8
part1
  6
ByLayer
 62
  256
370
   -1
100
AcDbLine
 10
52
 20
-131
 11
48
 21
-131
  0
LINE
  5
163
100
AcDbEntity
  8
part1
  6
ByLayer
 62
  256
370
   -1
100
AcDbLine
 10
77
 20
-156
 11
77
 21
-160
  0
LINE
  5
164
100
AcDbEntity
  8
part1
  6
ByLayer
 62
  256
370
   -1
100
AcDbLine
 10
52
 20
-154
 11
52
 21
-131
  0
LINE
  5
165
100
AcDbEntity
  8
part1
  6
ByLayer
 62
  256
370
   -1
100
AcDbLine
 10
54
 20
-156
 11
77
 21
-156
  0
ARC
  5
166
100
AcDbEntity
  8
part1
  6
ByLayer
 62
  256
370
   -1
100
AcDbCircle
 10
54
 20
-154
 40
2
100
AcDbArc
 50
180
 51
270
  0
LINE
  5
167
100
AcDbEntity
  8
part1
  6
ByLayer
 62
  256
370
   -1
100
AcDbLine
 10
48
 20
-131
 11
48
 21
-158
  0
LINE
  5
168
100
AcDbEntity
  8
part1
  6
ByLayer
 62
  256
370
   -1
100
AcDbLine
 10
77
 20
-160
 11
50
 21
-160
  0
ARC
  5
169
100
AcDbEntity
  8
part1
  6
ByLayer
 62
  256
370
   -1
100
AcDbCircle
 10
50
 20
-158
 40
2
100
AcDbArc
 50
180
 51
270
  0
ARC
  5
16A
100
AcDbEntity
  8
part1
  6
ByLayer
 62
  256
370
   -1
100
AcDbCircle
 10
-4.50000000000162
 20
-41.99999999999848
 40
2
100
AcDbArc
 50
0
 51
90
  0
LINE
  5
16B
100
AcDbEntity
  8
part1
  6
ByLayer
 62
  256
370
   -1
100
AcDbLine
 10
-2.50000000000162
 20
-41.99999999999845
 11
-2.499999999999972
 21
-163.9999999999999
  0
ARC
  5
16C
100
AcDbEntity
  8
part1
  6
ByLayer
 62
  256
370
   -1
100
AcDbCircle
 10
-4.499999999999972
 20
-164
 40
2
100
AcDbArc
 50
270
 51
0
  0
LINE
  5
16D
100
AcDbEntity
  8
part1
  6
ByLayer
 62
  256
370
   -1
100
AcDbLine
 10
-25.50000000000001
 20
-166
 11
-4.499999999999972
 21
-166
  0
LINE
  5
16E
100
AcDbEntity
  8
part1
  6
ByLayer
 62
  256
370
   -1
100
AcDbLine
 10
-27.50000000000158
 20
-41.99999999999851
 11
-27.50000000000001
 21
-164
  0
LINE
  5
16F
100
AcDbEntity
  8
part1
  6
ByLayer
 62
  256
370
   -1
100
AcDbLine
 10
-25.50000000000158
 20
-39.99999999999848
 11
-4.50000000000162
 21
-39.99999999999848
  0
CIRCLE
  5
170
100
AcDbEntity
  8
part1
  6
ByLayer
 62
  256
370
   -1
100
AcDbCircle
 10
-15.00000000000013
 20
-53.49999999999997
 40
4.5
  0
CIRCLE
  5
171
100
AcDbEntity
  8
part1
  6
ByLayer
 62
  256
370
   -1
100
AcDbCircle
 10
-15.00000000000013
 20
-153.5
 40
4.5
  0
LINE
  5
172
100
AcDbEntity
  8
part1
  6
ByLayer
 62
  256
370
   -1
100
AcDbLine
 10
-25.50000000000158
 20
-39.99999999999848
 11
-31.50000000000158
 21
-39.99999999999848
  0
LINE
  5
173
100
AcDbEntity
  8
part1
  6
ByLayer
 62
  256
370
   -1
100
AcDbLine
 10
-25.50000000000001
 20
-166
 11
-31.50000000000001
 21
-166
  0
LINE
  5
174
100
AcDbEntity
  8
part1
  6
ByLayer
 62
  256
370
   -1
100
AcDbLine
 10
-27.50000000000001
 20
-164
 11
-27.50000000000001
 21
-166
  0
LINE
  5
175
100
AcDbEntity
  8
part1
  6
ByLayer
 62
  256
370
   -1
100
AcDbLine
 10
-27.50000000000158
 20
-41.99999999999848
 11
-27.50000000000158
 21
-39.99999999999848
  0
LINE
  5
176
100
AcDbEntity
  8
part1
  6
ByLayer
 62
  256
370
   -1
100
AcDbLine
 10
-31.50000000000158
 20
-39.99999999999848
 11
-31.50000000000001
 21
-166
  0
LINE
  5
177
100
AcDbEntity
  8
part1
  6
ByLayer
 62
  256
370
   -1
100
AcDbLine
 10
13.5
 20
-166
 11
8.5
 21
-166
  0
LINE
  5
178
100
AcDbEntity
  8
part1
  6
ByLayer
 62
  256
370
   -1
100
AcDbLine
 10
13.49999999999841
 20
-39.99999999999848
 11
8.499999999998408
 21
-39.99999999999848
  0
LINE
  5
179
100
AcDbEntity
  8
part1
  6
ByLayer
 62
  256
370
   -1
100
AcDbLine
 10
12.49999999999841
 20
-40.99999999999849
 11
12.49999999999841
 21
-39.99999999999849
  0
LINE
  5
17A
100
AcDbEntity
  8
part1
  6
ByLayer
 62
  256
370
   -1
100
AcDbLine
 10
12.5
 20
-165
 11
12.5
 21
-166
  0
LINE
  5
17B
100
AcDbEntity
  8
part1
  6
ByLayer
 62
  256
370
   -1
100
AcDbLine
 10
8.5
 20
-166
 11
8.499999999998408
 21
-39.99999999999848
  0
CIRCLE
  5
17C
100
AcDbEntity
  8
part4
  6
ByLayer
 62
  256
370
   -1
100
AcDbCircle
 10
280
 20
-130
 40
4
  0
LINE
  5
17D
100
AcDbEntity
  8
part4
  6
ByLayer
 62
  256
370
   -1
100
AcDbLine
 10
267.5
 20
-157
 11
262
 21
-157
  0
LINE
  5
17E
100
AcDbEntity
  8
part4
  6
ByLayer
 62
  256
370
   -1
100
AcDbLine
 10
292.5
 20
-157
 11
298
 21
-157
  0
ARC
  5
17F
100
AcDbEntity
  8
part4
  6
CONTINUOUS
 62
    6
370
    0
100
AcDbCircle
 10
280
 20
-157
 40
12.5
100
AcDbArc
 50
0
 51
180
  0
LINE
  5
180
100
AcDbEntity
  8
part4
  6
ByLayer
 62
  256
370
   -1
100
AcDbLine
 10
262
 20
-130
 11
262
 21
-157
  0
LINE
  5
181
100
AcDbEntity
  8
part4
  6
ByLayer
 62
  256
370
   -1
100
AcDbLine
 10
298
 20
-130
 11
298
 21
-157
  0
ARC
  5
182
100
AcDbEntity
  8
part4
  6
CONTINUOUS
 62
    6
370
    0
100
AcDbCircle
 10
280
 20
-130
 40
18
100
AcDbArc
 50
0
 51
180
  0
CIRCLE
  5
183
100
AcDbEntity
  8
part3
  6
ByLayer
 62
  256
370
   -1
100
AcDbCircle
 10
220
 20
-130
 40
4
  0
LINE
  5
184
100
AcDbEntity
  8
part3
  6
ByLayer
 62
  256
370
   -1
100
AcDbLine
 10
202
 20
-130
 11
202
 21
-157
  0
LINE
  5
185
100
AcDbEntity
  8
part3
  6
ByLayer
 62
  256
370
   -1
100
AcDbLine
 10
238
 20
-130
 11
238
 21
-157
  0
LINE
  5
186
100
AcDbEntity
  8
part3
  6
ByLayer
 62
  256
370
   -1
100
AcDbLine
 10
207.5
 20
-157
 11
202
 21
-157
  0
LINE
  5
187
100
AcDbEntity
  8
part3
  6
ByLayer
 62
  256
370
   -1
100
AcDbLine
 10
232.5
 20
-157
 11
238
 21
-157
  0
ARC
  5
188
100
AcDbEntity
  8
part3
  6
CONTINUOUS
 62
    3
370
    0
100
AcDbCircle
 10
220
 20
-130
 40
18
100
AcDbArc
 50
0
 51
180
  0
ARC
  5
189
100
AcDbEntity
  8
part3
  6
CONTINUOUS
 62
    3
370
    0
100
AcDbCircle
 10
220
 20
-157
 40
12.5
100
AcDbArc
 50
0
 51
180
  0
LINE
  5
18A
100
AcDbEntity
  8
part3
  6
ByLayer
 62
  256
370
   -1
100
AcDbLine
 10
243
 20
-157
 11
243
 21
-112
  0
LINE
  5
18B
100
AcDbEntity
  8
part3
  6
ByLayer
 62
  256
370
   -1
100
AcDbLine
 10
243
 20
-112
 11
247
 21
-112
  0
LINE
  5
18C
100
AcDbEntity
  8
part3
  6
ByLayer
 62
  256
370
   -1
100
AcDbLine
 10
247
 20
-112
 11
247
 21
-157
  0
LINE
  5
18D
100
AcDbEntity
  8
part3
  6
ByLayer
 62
  256
370
   -1
100
AcDbLine
 10
247
 20
-157
 11
243
 21
-157
  0
LINE
  5
18E
100
AcDbEntity
  8
part4
  6
ByLayer
 62
  256
370
   -1
100
AcDbLine
 10
303
 20
-112
 11
307
 21
-112
  0
LINE
  5
18F
100
AcDbEntity
  8
part4
  6
ByLayer
 62
  256
370
   -1
100
AcDbLine
 10
307
 20
-112
 11
307
 21
-157
  0
LINE
  5
190
100
AcDbEntity
  8
part4
  6
ByLayer
 62
  256
370
   -1
100
AcDbLine
 10
307
 20
-157
 11
303
 21
-157
  0
LINE
  5
191
100
AcDbEntity
  8
part4
  6
ByLayer
 62
  256
370
   -1
100
AcDbLine
 10
303
 20
-157
 11
303
 21
-112
  0
LINE
  5
192
100
AcDbEntity
  8
part2
  6
ByLayer
 62
  256
370
   -1
100
AcDbLine
 10
150
 20
-150
 11
150
 21
-70
  0
LINE
  5
193
100
AcDbEntity
  8
part2
  6
ByLayer
 62
  256
370
   -1
100
AcDbLine
 10
124.9999999999999
 20
-150
 11
124.9999999999999
 21
-70
  0
LINE
  5
194
100
AcDbEntity
  8
part2
  6
ByLayer
 62
  256
370
   -1
100
AcDbLine
 10
133.4999999999999
 20
-120.0000000000001
 11
133.4999999999999
 21
-70
  0
LINE
  5
195
100
AcDbEntity
  8
part2
  6
ByLayer
 62
  256
370
   -1
100
AcDbLine
 10
141.4999999999999
 20
-120
 11
141.4999999999999
 21
-69.99999999999994
  0
ARC
  5
196
100
AcDbEntity
  8
part2
  6
CONTINUOUS
 62
    5
370
    0
100
AcDbCircle
 10
137.5
 20
-70
 40
12.5
100
AcDbArc
 50
360
 51
180
  0
ARC
  5
197
100
AcDbEntity
  8
part2
  6
CONTINUOUS
 62
    5
370
    0
100
AcDbCircle
 10
137.5
 20
-70
 40
4
100
AcDbArc
 50
3.053e-13
 51
180
  0
LINE
  5
198
100
AcDbEntity
  8
part2
  6
ByLayer
 62
  256
370
   -1
100
AcDbLine
 10
133.4999999999999
 20
-130.0000000000001
 11
133.4999999999999
 21
-120
  0
LINE
  5
199
100
AcDbEntity
  8
part2
  6
ByLayer
 62
  256
370
   -1
100
AcDbLine
 10
141.4999999999999
 20
-130
 11
141.4999999999999
 21
-120
  0
ARC
  5
19A
100
AcDbEntity
  8
part2
  6
CONTINUOUS
 62
    5
370
    0
100
AcDbCircle
 10
137.4999999999999
 20
-130.0000000000001
 40
4
100
AcDbArc
 50
180.0000000000001
 51
4.58e-13
  0
ARC
  5
19B
100
AcDbEntity
  8
part2
  6
CONTINUOUS
 62
    5
370
    0
100
AcDbCircle
 10
137.5
 20
-150
 40
12.5
100
AcDbArc
 50
180.0000000000001
 51
5.09e-14
  0
CIRCLE
  5
19C
100
AcDbEntity
  8
part2
  6
ByLayer
 62
  256
370
   -1
100
AcDbCircle
 10
137.5
 20
-150
 40
4
  0
LINE
  5
19D
100
AcDbEntity
  8
part2
  6
ByLayer
 62
  256
370
   -1
100
AcDbLine
 10
-2.50000000000162
 20
-41.99999999999848
 11
-2.50000000000162
 21
-41.99999999999848
  0
LINE
  5
19E
100
AcDbEntity
  8
part2
  6
ByLayer
 62
  256
370
   -1
100
AcDbLine
 10
117.5
 20
-162.5
 11
113.5
 21
-162.5
  0
LINE
  5
19F
100
AcDbEntity
  8
part2
  6
ByLayer
 62
  256
370
   -1
100
AcDbLine
 10
117.5
 20
-57.5
 11
113.5
 21
-57.5
  0
LINE
  5
1A0
100
AcDbEntity
  8
part2
  6
ByLayer
 62
  256
370
   -1
100
AcDbLine
 10
117.5
 20
-57.5
 11
117.5
 21
-162.5
  0
LINE
  5
1A1
100
AcDbEntity
  8
part2
  6
ByLayer
 62
  256
370
   -1
100
AcDbLine
 10
117.5
 20
-162.5
 11
113.5
 21
-162.5
  0
LINE
  5
1A2
100
AcDbEntity
  8
part2
  6
ByLayer
 62
  256
370
   -1
100
AcDbLine
 10
113.5
 20
-162.5
 11
113.5
 21
-57.5
  0
DIMENSION
  5
1A3
100
AcDbEntity
  8
dimensions
  6
ByLayer
 62
  256
370
   -1
100
AcDbDimension
  2
*D1
 10
99.99999999999997
 20
-162.5
 30
0
 11
95.37499999999997
 21
-110
 31
0
 70
   33
 71
    5
 72
    0
  3
Standard
 53
0
210
0
220
0
230
1
100
AcDbAlignedDimension
 13
113.5
 23
-57.5
 33
0
 14
113.5
 24
-162.5
 34
0
  0
DIMENSION
  5
1A4
100
AcDbEntity
  8
dimensions
  6
ByLayer
 62
  256
370
   -1
100
AcDbDimension
  2
*D2
 10
141.4999999999995
 20
-39.99999999999999
 30
0
 11
137.4999999999995
 21
-35.37500000000002
 31
0
 70
   33
 71
    5
 72
    0
  3
Standard
 53
0
210
0
220
0
230
1
100
AcDbAlignedDimension
 13
133.4999999999999
 23
-95.00000000000003
 33
0
 14
141.4999999999999
 24
-94.99999999999997
 34
0
  0
DIMENSION
  5
1A5
100
AcDbEntity
  8
dimensions
  6
ByLayer
 62
  256
370
   -1
100
AcDbDimension
  2
*D3
 10
150
 20
-30
 30
0
 11
137.4999999999999
 21
-25.375
 31
0
 70
   33
 71
    5
 72
    0
  3
Standard
 53
0
210
0
220
0
230
1
100
AcDbAlignedDimension
 13
124.9999999999999
 23
-110
 33
0
 14
150
 24
-110
 34
0
  0
DIMENSION
  5
1A6
100
AcDbEntity
  8
dimensions
  6
ByLayer
 62
  256
370
   -1
100
AcDbDimension
  2
*D4
 10
137.5
 20
-150
 30
0
 11
146.2222222222222
 21
-145.375
 31
0
 70
   36
 71
    5
 72
    0
  3
Standard
 53
0
210
0
220
0
230
1
100
AcDbRadialDimension
 15
141.5
 25
-150
 35
0
 40
0
  0
DIMENSION
  5
1A7
100
AcDbEntity
  8
dimensions
  6
ByLayer
 62
  256
370
   -1
100
AcDbDimension
  2
*D5
 10
25
 20
-153.5
 30
0
 11
34.60536954028838
 21
-151.2186272798319
 31
0
 70
   36
 71
    5
 72
    0
  3
Standard
 53
0
210
0
220
0
230
1
100
AcDbRadialDimension
 15
28.87129002715309
 25
-154.5065354070598
 35
0
 40
0
  0
DIMENSION
  5
1A8
100
AcDbEntity
  8
dimensions
  6
ByLayer
 62
  256
370
   -1
100
AcDbDimension
  2
*D6
 10
24.99999999999841
 20
-52.49999999999848
 30
0
 11
34.4976819803873
 21
-49.80522310882117
 31
0
 70
   36
 71
    5
 72
    0
  3
Standard
 53
0
210
0
220
0
230
1
100
AcDbRadialDimension
 15
28.91120965630802
 25
-53.3381163549221
 35
0
 40
0
  0
DIMENSION
  5
1A9
100
AcDbEntity
  8
dimensions
  6
ByLayer
 62
  256
370
   -1
100
AcDbDimension
  2
*D7
 10
-15.00000000000013
 20
-53.49999999999997
 30
0
 11
-0.3942141746387662
 21
-52.5187355139508
 31
0
 70
   36
 71
    5
 72
    0
  3
Standard
 53
0
210
0
220
0
230
1
100
AcDbRadialDimension
 15
-10.6447987194529
 25
-54.63235233294225
 35
0
 40
0
  0
DIMENSION
  5
1AA
100
AcDbEntity
  8
dimensions
  6
ByLayer
 62
  256
370
   -1
100
AcDbDimension
  2
*D8
 10
-15.00000000000013
 20
-153.5
 30
0
 11
-0.3942141746388121
 21
-152.5187355139506
 31
0
 70
   36
 71
    5
 72
    0
  3
Standard
 53
0
210
0
220
0
230
1
100
AcDbRadialDimension
 15
-10.64479871945291
 25
-154.6323523329422
 35
0
 40
0
  0
DIMENSION
  5
1AB
100
AcDbEntity
  8
dimensions
  6
ByLayer
 62
  256
370
   -1
100
AcDbDimension
  2
*D9
 10
-59.99999999999956
 20
-166.0000000000004
 30
0
 11
-64.62500000000034
 21
-102.9999999999996
 31
0
 70
   33
 71
    5
 72
    0
  3
Standard
 53
0
210
0
220
0
230
1
100
AcDbAlignedDimension
 13
-31.50000000000158
 23
-39.99999999999848
 33
0
 14
-31.50000000000001
 24
-166
 34
0
  0
DIMENSION
  5
1AC
100
AcDbEntity
  8
dimensions
  6
ByLayer
 62
  256
370
   -1
100
AcDbDimension
  2
*D10
 10
-2.500000000001086
 20
-30.00000000000001
 30
0
 11
-15.0000000000011
 21
-25.37500000000006
 31
0
 70
   33
 71
    5
 72
    0
  3
Standard
 53
0
210
0
220
0
230
1
100
AcDbAlignedDimension
 13
-27.5000000000008
 23
-102.9999999999993
 33
0
 14
-2.500000000000796
 24
-102.9999999999992
 34
0
  0
DIMENSION
  5
1AD
100
AcDbEntity
  8
dimensions
  6
ByLayer
 62
  256
370
   -1
100
AcDbDimension
  2
*D11
 10
37.49999999999891
 20
-30
 30
0
 11
24.9999999999989
 21
-25.37500000000005
 31
0
 70
   33
 71
    5
 72
    0
  3
Standard
 53
0
210
0
220
0
230
1
100
AcDbAlignedDimension
 13
12.4999999999992
 23
-102.9999999999992
 33
0
 14
37.4999999999992
 24
-102.9999999999991
 34
0
  0
DIMENSION
  5
1AE
100
AcDbEntity
  8
dimensions
  6
ByLayer
 62
  256
370
   -1
100
AcDbDimension
  2
*D12
 10
8.499999999998426
 20
-30.00000000000018
 30
0
 11
10.49999999999844
 21
-25.37500000000018
 31
0
 70
   33
 71
    5
 72
    0
  3
Standard
 53
0
210
0
220
0
230
1
100
AcDbAlignedDimension
 13
12.49999999999841
 23
-39.99999999999849
 33
0
 14
8.499999999998408
 24
-39.99999999999848
 34
0
  0
DIMENSION
  5
1AF
100
AcDbEntity
  8
dimensions
  6
ByLayer
 62
  256
370
   -1
100
AcDbDimension
  2
*D13
 10
-31.50000000000158
 20
-30.00000000000007
 30
0
 11
-29.50000000000158
 21
-25.37500000000007
 31
0
 70
   33
 71
    5
 72
    0
  3
Standard
 53
0
210
0
220
0
230
1
100
AcDbAlignedDimension
 13
-27.50000000000158
 23
-39.99999999999848
 33
0
 14
-31.50000000000158
 24
-39.99999999999848
 34
0
  0
DIMENSION
  5
1B0
100
AcDbEntity
  8
dimensions
  6
ByLayer
 62
  256
370
   -1
100
AcDbDimension
  2
*D14
 10
-40
 20
-53.49999999999997
 30
0
 11
-44.625
 21
-46.74999999999923
 31
0
 70
   32
 71
    5
 72
    0
  3
Standard
 53
0
210
0
220
0
230
1
100
AcDbAlignedDimension
 13
-31.50000000000158
 23
-39.99999999999848
 33
0
 14
-15.00000000000013
 24
-53.49999999999997
 34
0
 50
90
100
AcDbRotatedDimension
  0
DIMENSION
  5
1B1
100
AcDbEntity
  8
dimensions
  6
ByLayer
 62
  256
370
   -1
100
AcDbDimension
  2
*D15
 10
-40
 20
-166
 30
0
 11
-44.625
 21
-159.75
 31
0
 70
   32
 71
    5
 72
    0
  3
Standard
 53
0
210
0
220
0
230
1
100
AcDbAlignedDimension
 13
-15.00000000000013
 23
-153.5
 33
0
 14
-27.50000000000001
 24
-166
 34
0
 50
90
100
AcDbRotatedDimension
  0
DIMENSION
  5
1B2
100
AcDbEntity
  8
dimensions
  6
ByLayer
 62
  256
370
   -1
100
AcDbDimension
  2
*D16
 10
-40
 20
-153.5
 30
0
 11
-44.625
 21
-103.5
 31
0
 70
   32
 71
    5
 72
    0
  3
Standard
 53
0
210
0
220
0
230
1
100
AcDbAlignedDimension
 13
-15.00000000000013
 23
-53.49999999999997
 33
0
 14
-15.00000000000013
 24
-153.5
 34
0
 50
90
100
AcDbRotatedDimension
  0
DIMENSION
  5
1B3
100
AcDbEntity
  8
dimensions
  6
ByLayer
 62
  256
370
   -1
100
AcDbDimension
  2
*D17
 10
160
 20
-130.0000000000001
 30
0
 11
155.375
 21
-100.0000000000001
 31
0
 70
   32
 71
    5
 72
    0
  3
Standard
 53
0
210
0
220
0
230
1
100
AcDbAlignedDimension
 13
137.5
 23
-70
 33
0
 14
137.4999999999999
 24
-130.0000000000001
 34
0
 50
90
100
AcDbRotatedDimension
  0
DIMENSION
  5
1B4
100
AcDbEntity
  8
dimensions
  6
ByLayer
 62
  256
370
   -1
100
AcDbDimension
  2
*D18
 10
160
 20
-130.0000000000001
 30
0
 11
155.375
 21
-140.0000000000001
 31
0
 70
   32
 71
    5
 72
    0
  3
Standard
 53
0
210
0
220
0
230
1
100
AcDbAlignedDimension
 13
137.5
 23
-150
 33
0
 14
137.4999999999999
 24
-130.0000000000001
 34
0
 50
90
100
AcDbRotatedDimension
  0
DIMENSION
  5
1B5
100
AcDbEntity
  8
dimensions
  6
ByLayer
 62
  256
370
   -1
100
AcDbDimension
  2
*D19
 10
200
 20
-157
 30
0
 11
195.375
 21
-143.5
 31
0
 70
   32
 71
    5
 72
    0
  3
Standard
 53
0
210
0
220
0
230
1
100
AcDbAlignedDimension
 13
220
 23
-130
 33
0
 14
243
 24
-157
 34
0
 50
90
100
AcDbRotatedDimension
  0
DIMENSION
  5
1B6
100
AcDbEntity
  8
dimensions
  6
ByLayer
 62
  256
370
   -1
100
AcDbDimension
  2
*D20
 10
190
 20
-112
 30
0
 11
185.375
 21
-134.5
 31
0
 70
   32
 71
    5
 72
    0
  3
Standard
 53
0
210
0
220
0
230
1
100
AcDbAlignedDimension
 13
243
 23
-157
 33
0
 14
243
 24
-112
 34
0
 50
90
100
AcDbRotatedDimension
  0
DIMENSION
  5
1B7
100
AcDbEntity
  8
dimensions
  6
ByLayer
 62
  256
370
   -1
100
AcDbDimension
  2
*D21
 10
200
 20
-112
 30
0
 11
195.375
 21
-121
 31
0
 70
   32
 71
    5
 72
    0
  3
Standard
 53
0
210
0
220
0
230
1
100
AcDbAlignedDimension
 13
220
 23
-130
 33
0
 14
242.375
 24
-112
 34
0
 50
90
100
AcDbRotatedDimension
  0
DIMENSION
  5
1B8
100
AcDbEntity
  8
dimensions
  6
ByLayer
 62
  256
370
   -1
100
AcDbDimension
  2
*D22
 10
220
 20
-130
 30
0
 11
228.7222222222222
 21
-125.375
 31
0
 70
   36
 71
    5
 72
    0
  3
Standard
 53
0
210
0
220
0
230
1
100
AcDbRadialDimension
 15
224
 25
-130
 35
0
 40
0
  0
DIMENSION
  5
1B9
100
AcDbEntity
  8
dimensions
  6
ByLayer
 62
  256
370
   -1
100
AcDbDimension
  2
*D23
 10
220
 20
-130
 30
0
 11
223.0935921676911
 21
-120.3656701063333
 31
0
 70
   36
 71
    5
 72
    0
  3
Standard
 53
0
210
0
220
0
230
1
100
AcDbRadialDimension
 15
232.7279220613578
 25
-117.2720779386421
 35
0
 40
0
  0
DIMENSION
  5
1BA
100
AcDbEntity
  8
dimensions
  6
ByLayer
 62
  256
370
   -1
100
AcDbDimension
  2
*D24
 10
117.5
 20
-40
 30
0
 11
115.5
 21
-35.375
 31
0
 70
   32
 71
    5
 72
    0
  3
Standard
 53
0
210
0
220
0
230
1
100
AcDbAlignedDimension
 13
113.5
 23
-57.5
 33
0
 14
117.5
 24
-57.5
 34
0
100
AcDbRotatedDimension
  0
DIMENSION
  5
1BB
100
AcDbEntity
  8
dimensions
  6
ByLayer
 62
  256
370
   -1
100
AcDbDimension
  2
*D25
 10
247
 20
-100
 30
0
 11
245
 21
-95.375
 31
0
 70
   32
 71
    5
 72
    0
  3
Standard
 53
0
210
0
220
0
230
1
100
AcDbAlignedDimension
 13
243
 23
-112
 33
0
 14
247
 24
-112
 34
0
100
AcDbRotatedDimension
  0
CIRCLE
  5
1BC
100
AcDbEntity
  8
0
  6
ByLayer
 62
  256
370
   -1
100
AcDbCircle
 10
441
 20
-150
 40
4.5
  0
CIRCLE
  5
1BD
100
AcDbEntity
  8
0
  6
ByLayer
 62
  256
370
   -1
100
AcDbCircle
 10
521
 20
-150
 40
4.5
  0
CIRCLE
  5
1BE
100
AcDbEntity
  8
0
  6
ByLayer
 62
  256
370
   -1
100
AcDbCircle
 10
521
 20
-250
 40
4.5
  0
CIRCLE
  5
1BF
100
AcDbEntity
  8
0
  6
ByLayer
 62
  256
370
   -1
100
AcDbCircle
 10
441
 20
-250
 40
4.5
  0
ARC
  5
1C0
100
AcDbEntity
  8
0
  6
ByLayer
 62
  256
370
   -1
100
AcDbCircle
 10
435
 20
-165
 40
7
100
AcDbArc
 50
180
 51
270
  0
LINE
  5
1C1
100
AcDbEntity
  8
0
  6
ByLayer
 62
  256
370
   -1
100
AcDbLine
 10
428
 20
-144
 11
428
 21
-165
  0
ARC
  5
1C2
100
AcDbEntity
  8
0
  6
ByLayer
 62
  256
370
   -1
100
AcDbCircle
 10
435
 20
-144
 40
7
100
AcDbArc
 50
90
 51
180
  0
LINE
  5
1C3
100
AcDbEntity
  8
0
  6
ByLayer
 62
  256
370
   -1
100
AcDbLine
 10
435
 20
-137
 11
527
 21
-137
  0
ARC
  5
1C4
100
AcDbEntity
  8
0
  6
ByLayer
 62
  256
370
   -1
100
AcDbCircle
 10
527
 20
-144
 40
7
100
AcDbArc
 50
0
 51
90
  0
LINE
  5
1C5
100
AcDbEntity
  8
0
  6
ByLayer
 62
  256
370
   -1
100
AcDbLine
 10
534
 20
-144
 11
534
 21
-165
  0
ARC
  5
1C6
100
AcDbEntity
  8
0
  6
ByLayer
 62
  256
370
   -1
100
AcDbCircle
 10
527
 20
-165
 40
7
100
AcDbArc
 50
270
 51
0
  0
LINE
  5
1C7
100
AcDbEntity
  8
0
  6
ByLayer
 62
  256
370
   -1
100
AcDbLine
 10
527
 20
-172
 11
516
 21
-172
  0
ARC
  5
1C8
100
AcDbEntity
  8
0
  6
ByLayer
 62
  256
370
   -1
100
AcDbCircle
 10
516
 20
-179
 40
7
100
AcDbArc
 50
90
 51
180
  0
LINE
  5
1C9
100
AcDbEntity
  8
0
  6
ByLayer
 62
  256
370
   -1
100
AcDbLine
 10
509
 20
-221
 11
509
 21
-179
  0
ARC
  5
1CA
100
AcDbEntity
  8
0
  6
ByLayer
 62
  256
370
   -1
100
AcDbCircle
 10
516
 20
-221
 40
7
100
AcDbArc
 50
180
 51
270
  0
LINE
  5
1CB
100
AcDbEntity
  8
0
  6
ByLayer
 62
  256
370
   -1
100
AcDbLine
 10
527
 20
-228
 11
516
 21
-228
  0
ARC
  5
1CC
100
AcDbEntity
  8
0
  6
ByLayer
 62
  256
370
   -1
100
AcDbCircle
 10
527
 20
-235
 40
7
100
AcDbArc
 50
0
 51
90
  0
LINE
  5
1CD
100
AcDbEntity
  8
0
  6
ByLayer
 62
  256
370
   -1
100
AcDbLine
 10
534
 20
-256
 11
534
 21
-235
  0
ARC
  5
1CE
100
AcDbEntity
  8
0
  6
ByLayer
 62
  256
370
   -1
100
AcDbCircle
 10
527
 20
-256
 40
7
100
AcDbArc
 50
270
 51
0
  0
LINE
  5
1CF
100
AcDbEntity
  8
0
  6
ByLayer
 62
  256
370
   -1
100
AcDbLine
 10
527
 20
-263
 11
435
 21
-263
  0
ARC
  5
1D0
100
AcDbEntity
  8
0
  6
ByLayer
 62
  256
370
   -1
100
AcDbCircle
 10
435
 20
-256
 40
7
100
AcDbArc
 50
180
 51
270
  0
LINE
  5
1D1
100
AcDbEntity
  8
0
  6
ByLayer
 62
  256
370
   -1
100
AcDbLine
 10
428
 20
-256
 11
428
 21
-235
  0
ARC
  5
1D2
100
AcDbEntity
  8
0
  6
ByLayer
 62
  256
370
   -1
100
AcDbCircle
 10
435
 20
-235
 40
7
100
AcDbArc
 50
90
 51
180
  0
LINE
  5
1D3
100
AcDbEntity
  8
0
  6
ByLayer
 62
  256
370
   -1
100
AcDbLine
 10
435
 20
-228
 11
446
 21
-228
  0
ARC
  5
1D4
100
AcDbEntity
  8
0
  6
ByLayer
 62
  256
370
   -1
100
AcDbCircle
 10
446
 20
-221
 40
7
100
AcDbArc
 50
270
 51
0
  0
LINE
  5
1D5
100
AcDbEntity
  8
0
  6
ByLayer
 62
  256
370
   -1
100
AcDbLine
 10
453
 20
-179
 11
453
 21
-221
  0
LINE
  5
1D6
100
AcDbEntity
  8
0
  6
ByLayer
 62
  256
370
   -1
100
AcDbLine
 10
435
 20
-172
 11
446
 21
-172
  0
ARC
  5
1D7
100
AcDbEntity
  8
0
  6
ByLayer
 62
  256
370
   -1
100
AcDbCircle
 10
446
 20
-179
 40
7
100
AcDbArc
 50
0
 51
90
  0
LINE
  5
1D8
100
AcDbEntity
  8
0
  6
ByLayer
 62
  256
370
   -1
100
AcDbLine
 10
509
 20
-200
 11
574
 21
-200
  0
LINE
  5
1D9
100
AcDbEntity
  8
0
  6
ByLayer
 62
  256
370
   -1
100
AcDbLine
 10
453
 20
-200
 11
400
 21
-200
  0
LINE
  5
1DA
100
AcDbEntity
  8
0
  6
ByLayer
 62
  256
370
   -1
100
AcDbLine
 10
400
 20
-200
 11
400
 21
-154.5
  0
LINE
  5
1DB
100
AcDbEntity
  8
0
  6
ByLayer
 62
  256
370
   -1
100
AcDbLine
 10
428
 20
-147.5
 11
407
 21
-147.5
  0
ARC
  5
1DC
100
AcDbEntity
  8
0
  6
ByLayer
 62
  256
370
   -1
100
AcDbCircle
 10
407
 20
-154.5
 40
7
100
AcDbArc
 50
90
 51
180
  0
LINE
  5
1DD
100
AcDbEntity
  8
0
  6
ByLayer
 62
  256
370
   -1
100
AcDbLine
 10
400
 20
-200
 11
400
 21
-245.5
  0
LINE
  5
1DE
100
AcDbEntity
  8
0
  6
ByLayer
 62
  256
370
   -1
100
AcDbLine
 10
407
 20
-252.5
 11
428
 21
-252.5
  0
ARC
  5
1DF
100
AcDbEntity
  8
0
  6
ByLayer
 62
  256
370
   -1
100
AcDbCircle
 10
407
 20
-245.5
 40
7
100
AcDbArc
 50
180
 51
270
  0
LINE
  5
1E0
100
AcDbEntity
  8
0
  6
ByLayer
 62
  256
370
   -1
100
AcDbLine
 10
567
 20
-147.5
 11
534
 21
-147.5
  0
LINE
  5
1E1
100
AcDbEntity
  8
0
  6
ByLayer
 62
  256
370
   -1
100
AcDbLine
 10
574
 20
-200
 11
574
 21
-154.5
  0
ARC
  5
1E2
100
AcDbEntity
  8
0
  6
ByLayer
 62
  256
370
   -1
100
AcDbCircle
 10
567
 20
-154.5
 40
7
100
AcDbArc
 50
0
 51
90
  0
LINE
  5
1E3
100
AcDbEntity
  8
0
  6
ByLayer
 62
  256
370
   -1
100
AcDbLine
 10
534
 20
-252.5
 11
567
 21
-252.5
  0
LINE
  5
1E4
100
AcDbEntity
  8
0
  6
ByLayer
 62
  256
370
   -1
100
AcDbLine
 10
574
 20
-200
 11
574
 21
-245.5
  0
ARC
  5
1E5
100
AcDbEntity
  8
0
  6
ByLayer
 62
  256
370
   -1
100
AcDbCircle
 10
567
 20
-245.5
 40
7
100
AcDbArc
 50
270
 51
0
  0
LINE
  5
1E6
100
AcDbEntity
  8
0
  6
ByLayer
 62
  256
370
   -1
100
AcDbLine
 10
400
 20
-200
 11
350
 21
-200
  0
LINE
  5
1E7
100
AcDbEntity
  8
0
  6
ByLayer
 62
  256
370
   -1
100
AcDbLine
 10
350
 20
-200
 11
350
 21
-193
  0
LINE
  5
1E8
100
AcDbEntity
  8
0
  6
ByLayer
 62
  256
370
   -1
100
AcDbLine
 10
353
 20
-190
 11
400
 21
-190
  0
ARC
  5
1E9
100
AcDbEntity
  8
0
  6
ByLayer
 62
  256
370
   -1
100
AcDbCircle
 10
353
 20
-193
 40
3
100
AcDbArc
 50
90
 51
180
  0
LINE
  5
1EA
100
AcDbEntity
  8
0
  6
ByLayer
 62
  256
370
   -1
100
AcDbLine
 10
350
 20
-200
 11
350
 21
-207
  0
LINE
  5
1EB
100
AcDbEntity
  8
0
  6
ByLayer
 62
  256
370
   -1
100
AcDbLine
 10
353
 20
-210
 11
400
 21
-210
  0
ARC
  5
1EC
100
AcDbEntity
  8
0
  6
ByLayer
 62
  256
370
   -1
100
AcDbCircle
 10
353
 20
-207
 40
3
100
AcDbArc
 50
180
 51
270
  0
ARC
  5
1ED
100
AcDbEntity
  8
part1
  6
ByLayer
 62
  256
370
   -1
100
AcDbCircle
 10
451.4999999999985
 20
-138.4999999999985
 40
2
100
AcDbArc
 50
0
 51
90
  0
LINE
  5
1EE
100
AcDbEntity
  8
part1
  6
ByLayer
 62
  256
370
   -1
100
AcDbLine
 10
453.4999999999985
 20
-138.4999999999985
 11
453.5000000000001
 21
-260.5
  0
ARC
  5
1EF
100
AcDbEntity
  8
part1
  6
ByLayer
 62
  256
370
   -1
100
AcDbCircle
 10
451.5000000000001
 20
-260.5
 40
2
100
AcDbArc
 50
270
 51
0
  0
LINE
  5
1F0
100
AcDbEntity
  8
part1
  6
ByLayer
 62
  256
370
   -1
100
AcDbLine
 10
430.5000000000001
 20
-262.5
 11
451.5000000000001
 21
-262.5
  0
LINE
  5
1F1
100
AcDbEntity
  8
part1
  6
ByLayer
 62
  256
370
   -1
100
AcDbLine
 10
428.4999999999985
 20
-138.4999999999985
 11
428.5000000000001
 21
-260.5
  0
LINE
  5
1F2
100
AcDbEntity
  8
part1
  6
ByLayer
 62
  256
370
   -1
100
AcDbLine
 10
430.4999999999985
 20
-136.4999999999985
 11
451.4999999999985
 21
-136.4999999999985
  0
CIRCLE
  5
1F3
100
AcDbEntity
  8
part1
  6
ByLayer
 62
  256
370
   -1
100
AcDbCircle
 10
441
 20
-150
 40
4.5
  0
CIRCLE
  5
1F4
100
AcDbEntity
  8
part1
  6
ByLayer
 62
  256
370
   -1
100
AcDbCircle
 10
441
 20
-250
 40
4.5
  0
LINE
  5
1F5
100
AcDbEntity
  8
part1
  6
ByLayer
 62
  256
370
   -1
100
AcDbLine
 10
430.4999999999985
 20
-136.4999999999985
 11
424.4999999999985
 21
-136.4999999999985
  0
LINE
  5
1F6
100
AcDbEntity
  8
part1
  6
ByLayer
 62
  256
370
   -1
100
AcDbLine
 10
430.5000000000001
 20
-262.5
 11
424.5000000000001
 21
-262.5
  0
LINE
  5
1F7
100
AcDbEntity
  8
part1
  6
ByLayer
 62
  256
370
   -1
100
AcDbLine
 10
428.5000000000001
 20
-260.5
 11
428.5000000000001
 21
-262.5
  0
LINE
  5
1F8
100
AcDbEntity
  8
part1
  6
ByLayer
 62
  256
370
   -1
100
AcDbLine
 10
428.4999999999985
 20
-138.4999999999985
 11
428.4999999999985
 21
-136.4999999999985
  0
LINE
  5
1F9
100
AcDbEntity
  8
part1
  6
ByLayer
 62
  256
370
   -1
100
AcDbLine
 10
424.4999999999985
 20
-136.4999999999985
 11
424.5000000000001
 21
-262.5
  0
ARC
  5
1FA
100
AcDbEntity
  8
part1
  6
ByLayer
 62
  256
370
   -1
100
AcDbCircle
 10
531.4999999999985
 20
-138.4999999999985
 40
2
100
AcDbArc
 50
0
 51
90
  0
LINE
  5
1FB
100
AcDbEntity
  8
part1
  6
ByLayer
 62
  256
370
   -1
100
AcDbLine
 10
533.4999999999985
 20
-138.4999999999985
 11
533.5000000000001
 21
-260.5
  0
ARC
  5
1FC
100
AcDbEntity
  8
part1
  6
ByLayer
 62
  256
370
   -1
100
AcDbCircle
 10
531.5000000000001
 20
-260.5
 40
2
100
AcDbArc
 50
270
 51
0
  0
LINE
  5
1FD
100
AcDbEntity
  8
part1
  6
ByLayer
 62
  256
370
   -1
100
AcDbLine
 10
510.5000000000001
 20
-262.5
 11
531.5000000000001
 21
-262.5
  0
LINE
  5
1FE
100
AcDbEntity
  8
part1
  6
ByLayer
 62
  256
370
   -1
100
AcDbLine
 10
508.4999999999985
 20
-138.4999999999985
 11
508.5000000000001
 21
-260.5
  0
LINE
  5
1FF
100
AcDbEntity
  8
part1
  6
ByLayer
 62
  256
370
   -1
100
AcDbLine
 10
510.4999999999985
 20
-136.4999999999985
 11
531.4999999999985
 21
-136.4999999999985
  0
CIRCLE
  5
200
100
AcDbEntity
  8
part1
  6
ByLayer
 62
  256
370
   -1
100
AcDbCircle
 10
521
 20
-150
 40
4.5
  0
CIRCLE
  5
201
100
AcDbEntity
  8
part1
  6
ByLayer
 62
  256
370
   -1
100
AcDbCircle
 10
521
 20
-250
 40
4.5
  0
LINE
  5
202
100
AcDbEntity
  8
part1
  6
ByLayer
 62
  256
370
   -1
100
AcDbLine
 10
510.4999999999985
 20
-136.4999999999985
 11
504.4999999999985
 21
-136.4999999999985
  0
LINE
  5
203
100
AcDbEntity
  8
part1
  6
ByLayer
 62
  256
370
   -1
100
AcDbLine
 10
510.5000000000001
 20
-262.5
 11
504.5000000000001
 21
-262.5
  0
LINE
  5
204
100
AcDbEntity
  8
part1
  6
ByLayer
 62
  256
370
   -1
100
AcDbLine
 10
508.5000000000001
 20
-260.5
 11
508.5000000000001
 21
-262.5
  0
LINE
  5
205
100
AcDbEntity
  8
part1
  6
ByLayer
 62
  256
370
   -1
100
AcDbLine
 10
508.4999999999985
 20
-138.4999999999985
 11
508.4999999999985
 21
-136.4999999999985
  0
LINE
  5
206
100
AcDbEntity
  8
part1
  6
ByLayer
 62
  256
370
   -1
100
AcDbLine
 10
504.4999999999985
 20
-136.4999999999985
 11
504.5000000000001
 21
-262.5
  0
LINE
  5
207
100
AcDbEntity
  8
part2
  6
ByLayer
 62
  256
370
   -1
100
AcDbLine
 10
432.4999999999986
 20
-147.5
 11
428.4999999999986
 21
-147.5
  0
LINE
  5
208
100
AcDbEntity
  8
part2
  6
ByLayer
 62
  256
370
   -1
100
AcDbLine
 10
432.4999999999986
 20
-42.5
 11
428.4999999999986
 21
-42.5
  0
LINE
  5
209
100
AcDbEntity
  8
part2
  6
ByLayer
 62
  256
370
   -1
100
AcDbLine
 10
432.4999999999986
 20
-42.5
 11
432.4999999999986
 21
-147.5
  0
LINE
  5
20A
100
AcDbEntity
  8
part2
  6
ByLayer
 62
  256
370
   -1
100
AcDbLine
 10
432.4999999999986
 20
-147.5
 11
428.4999999999986
 21
-147.5
  0
LINE
  5
20B
100
AcDbEntity
  8
part2
  6
ByLayer
 62
  256
370
   -1
100
AcDbLine
 10
428.4999999999986
 20
-147.5
 11
428.4999999999986
 21
-42.5
  0
LINE
  5
20C
100
AcDbEntity
  8
part4
  6
ByLayer
 62
  256
370
   -1
100
AcDbLine
 10
428.5
 20
-252.5
 11
432.5
 21
-252.5
  0
LINE
  5
20D
100
AcDbEntity
  8
part4
  6
ByLayer
 62
  256
370
   -1
100
AcDbLine
 10
432.5
 20
-252.5
 11
432.5
 21
-297.5
  0
LINE
  5
20E
100
AcDbEntity
  8
part4
  6
ByLayer
 62
  256
370
   -1
100
AcDbLine
 10
432.5
 20
-297.5
 11
428.5
 21
-297.5
  0
LINE
  5
20F
100
AcDbEntity
  8
part4
  6
ByLayer
 62
  256
370
   -1
100
AcDbLine
 10
428.5
 20
-297.5
 11
428.5
 21
-252.5
  0
LINE
  5
210
100
AcDbEntity
  8
part4
  6
ByLayer
 62
  256
370
   -1
100
AcDbLine
 10
508.5
 20
-252.5
 11
512.5
 21
-252.5
  0
LINE
  5
211
100
AcDbEntity
  8
part4
  6
ByLayer
 62
  256
370
   -1
100
AcDbLine
 10
512.5
 20
-252.5
 11
512.5
 21
-297.5
  0
LINE
  5
212
100
AcDbEntity
  8
part4
  6
ByLayer
 62
  256
370
   -1
100
AcDbLine
 10
512.5
 20
-297.5
 11
508.5
 21
-297.5
  0
LINE
  5
213
100
AcDbEntity
  8
part4
  6
ByLayer
 62
  256
370
   -1
100
AcDbLine
 10
508.5
 20
-297.5
 11
508.5
 21
-252.5
  0
LINE
  5
214
100
AcDbEntity
  8
part3
  6
ByLayer
 62
  256
370
   -1
100
AcDbLine
 10
432.4999999999986
 20
-87.5
 11
432.4999999999986
 21
-42.5
  0
LINE
  5
215
100
AcDbEntity
  8
part3
  6
ByLayer
 62
  256
370
   -1
100
AcDbLine
 10
432.4999999999986
 20
-42.5
 11
436.4999999999986
 21
-42.5
  0
LINE
  5
216
100
AcDbEntity
  8
part3
  6
ByLayer
 62
  256
370
   -1
100
AcDbLine
 10
436.4999999999986
 20
-42.5
 11
436.4999999999986
 21
-87.5
  0
LINE
  5
217
100
AcDbEntity
  8
part3
  6
ByLayer
 62
  256
370
   -1
100
AcDbLine
 10
436.4999999999986
 20
-87.5
 11
432.4999999999986
 21
-87.5
  0
CIRCLE
  5
218
100
AcDbEntity
  8
0
  6
ByLayer
 62
  256
370
   -1
100
AcDbCircle
 10
1
 20
104.5
 40
4.5
  0
CIRCLE
  5
219
100
AcDbEntity
  8
0
  6
ByLayer
 62
  256
370
   -1
100
AcDbCircle
 10
81
 20
104.5
 40
4.5
  0
CIRCLE
  5
21A
100
AcDbEntity
  8
0
  6
ByLayer
 62
  256
370
   -1
100
AcDbCircle
 10
81
 20
4.5
 40
4.5
  0
CIRCLE
  5
21B
100
AcDbEntity
  8
0
  6
ByLayer
 62
  256
370
   -1
100
AcDbCircle
 10
1
 20
4.5
 40
4.5
  0
ARC
  5
21C
100
AcDbEntity
  8
0
  6
ByLayer
 62
  256
370
   -1
100
AcDbCircle
 10
-5
 20
89.5
 40
7
100
AcDbArc
 50
180
 51
270
  0
LINE
  5
21D
100
AcDbEntity
  8
0
  6
ByLayer
 62
  256
370
   -1
100
AcDbLine
 10
-12
 20
110.5
 11
-12
 21
89.5
  0
ARC
  5
21E
100
AcDbEntity
  8
0
  6
ByLayer
 62
  256
370
   -1
100
AcDbCircle
 10
-5
 20
110.5
 40
7
100
AcDbArc
 50
90
 51
180
  0
LINE
  5
21F
100
AcDbEntity
  8
0
  6
ByLayer
 62
  256
370
   -1
100
AcDbLine
 10
-5
 20
117.5
 11
87
 21
117.5
  0
ARC
  5
220
100
AcDbEntity
  8
0
  6
ByLayer
 62
  256
370
   -1
100
AcDbCircle
 10
87
 20
110.5
 40
7
100
AcDbArc
 50
0
 51
90
  0
LINE
  5
221
100
AcDbEntity
  8
0
  6
ByLayer
 62
  256
370
   -1
100
AcDbLine
 10
94
 20
110.5
 11
94
 21
89.5
  0
ARC
  5
222
100
AcDbEntity
  8
0
  6
ByLayer
 62
  256
370
   -1
100
AcDbCircle
 10
87
 20
89.5
 40
7
100
AcDbArc
 50
270
 51
0
  0
LINE
  5
223
100
AcDbEntity
  8
0
  6
ByLayer
 62
  256
370
   -1
100
AcDbLine
 10
87
 20
82.5
 11
76
 21
82.5
  0
ARC
  5
224
100
AcDbEntity
  8
0
  6
ByLayer
 62
  256
370
   -1
100
AcDbCircle
 10
76
 20
75.5
 40
7
100
AcDbArc
 50
90
 51
180
  0
LINE
  5
225
100
AcDbEntity
  8
0
  6
ByLayer
 62
  256
370
   -1
100
AcDbLine
 10
69
 20
33.5
 11
69
 21
75.5
  0
ARC
  5
226
100
AcDbEntity
  8
0
  6
ByLayer
 62
  256
370
   -1
100
AcDbCircle
 10
76
 20
33.5
 40
7
100
AcDbArc
 50
180
 51
270
  0
LINE
  5
227
100
AcDbEntity
  8
0
  6
ByLayer
 62
  256
370
   -1
100
AcDbLine
 10
87
 20
26.5
 11
76
 21
26.5
  0
ARC
  5
228
100
AcDbEntity
  8
0
  6
ByLayer
 62
  256
370
   -1
100
AcDbCircle
 10
87
 20
19.5
 40
7
100
AcDbArc
 50
0
 51
90
  0
LINE
  5
229
100
AcDbEntity
  8
0
  6
ByLayer
 62
  256
370
   -1
100
AcDbLine
 10
94
 20
-1.5
 11
94
 21
19.5
  0
ARC
  5
22A
100
AcDbEntity
  8
0
  6
ByLayer
 62
  256
370
   -1
100
AcDbCircle
 10
87
 20
-1.5
 40
7
100
AcDbArc
 50
270
 51
0
  0
LINE
  5
22B
100
AcDbEntity
  8
0
  6
ByLayer
 62
  256
370
   -1
100
AcDbLine
 10
87
 20
-8.5
 11
-5
 21
-8.5
  0
ARC
  5
22C
100
AcDbEntity
  8
0
  6
ByLayer
 62
  256
370
   -1
100
AcDbCircle
 10
-5
 20
-1.5
 40
7
100
AcDbArc
 50
180
 51
270
  0
LINE
  5
22D
100
AcDbEntity
  8
0
  6
ByLayer
 62
  256
370
   -1
100
AcDbLine
 10
-12
 20
-1.5
 11
-12
 21
19.5
  0
ARC
  5
22E
100
AcDbEntity
  8
0
  6
ByLayer
 62
  256
370
   -1
100
AcDbCircle
 10
-5
 20
19.5
 40
7
100
AcDbArc
 50
90
 51
180
  0
LINE
  5
22F
100
AcDbEntity
  8
0
  6
ByLayer
 62
  256
370
   -1
100
AcDbLine
 10
-5
 20
26.5
 11
6
 21
26.5
  0
ARC
  5
230
100
AcDbEntity
  8
0
  6
ByLayer
 62
  256
370
   -1
100
AcDbCircle
 10
6
 20
33.5
 40
7
100
AcDbArc
 50
270
 51
0
  0
LINE
  5
231
100
AcDbEntity
  8
0
  6
ByLayer
 62
  256
370
   -1
100
AcDbLine
 10
13
 20
75.5
 11
13
 21
33.5
  0
LINE
  5
232
100
AcDbEntity
  8
0
  6
ByLayer
 62
  256
370
   -1
100
AcDbLine
 10
-5
 20
82.5
 11
6
 21
82.5
  0
ARC
  5
233
100
AcDbEntity
  8
0
  6
ByLayer
 62
  256
370
   -1
100
AcDbCircle
 10
6
 20
75.5
 40
7
100
AcDbArc
 50
0
 51
90
  0
LINE
  5
234
100
AcDbEntity
  8
0
  6
ByLayer
 62
  256
370
   -1
100
AcDbLine
 10
69
 20
54.5
 11
134
 21
54.5
  0
LINE
  5
235
100
AcDbEntity
  8
0
  6
ByLayer
 62
  256
370
   -1
100
AcDbLine
 10
13
 20
54.5
 11
-40
 21
54.50000000000001
  0
LINE
  5
236
100
AcDbEntity
  8
0
  6
ByLayer
 62
  256
370
   -1
100
AcDbLine
 10
-40
 20
54.50000000000001
 11
-40
 21
100
  0
LINE
  5
237
100
AcDbEntity
  8
0
  6
ByLayer
 62
  256
370
   -1
100
AcDbLine
 10
-12
 20
107
 11
-33
 21
107
  0
ARC
  5
238
100
AcDbEntity
  8
0
  6
ByLayer
 62
  256
370
   -1
100
AcDbCircle
 10
-33
 20
100
 40
7
100
AcDbArc
 50
90
 51
180
  0
LINE
  5
239
100
AcDbEntity
  8
0
  6
ByLayer
 62
  256
370
   -1
100
AcDbLine
 10
-40
 20
54.50000000000001
 11
-40
 21
9.000000000000007
  0
LINE
  5
23A
100
AcDbEntity
  8
0
  6
ByLayer
 62
  256
370
   -1
100
AcDbLine
 10
-33
 20
2.000000000000007
 11
-12
 21
2.000000000000006
  0
ARC
  5
23B
100
AcDbEntity
  8
0
  6
ByLayer
 62
  256
370
   -1
100
AcDbCircle
 10
-33
 20
9.000000000000007
 40
7
100
AcDbArc
 50
180
 51
270
  0
LINE
  5
23C
100
AcDbEntity
  8
0
  6
ByLayer
 62
  256
370
   -1
100
AcDbLine
 10
127
 20
107
 11
94
 21
107
  0
LINE
  5
23D
100
AcDbEntity
  8
0
  6
ByLayer
 62
  256
370
   -1
100
AcDbLine
 10
134
 20
54.5
 11
134
 21
100
  0
ARC
  5
23E
100
AcDbEntity
  8
0
  6
ByLayer
 62
  256
370
   -1
100
AcDbCircle
 10
127
 20
100
 40
7
100
AcDbArc
 50
0
 51
90
  0
LINE
  5
23F
100
AcDbEntity
  8
0
  6
ByLayer
 62
  256
370
   -1
100
AcDbLine
 10
94
 20
2.000000000000002
 11
127
 21
2
  0
LINE
  5
240
100
AcDbEntity
  8
0
  6
ByLayer
 62
  256
370
   -1
100
AcDbLine
 10
134
 20
54.5
 11
134
 21
9
  0
ARC
  5
241
100
AcDbEntity
  8
0
  6
ByLayer
 62
  256
370
   -1
100
AcDbCircle
 10
127
 20
9
 40
7
100
AcDbArc
 50
270
 51
0
  0
LINE
  5
242
100
AcDbEntity
  8
0
  6
ByLayer
 62
  256
370
   -1
100
AcDbLine
 10
-40
 20
54.50000000000001
 11
-90
 21
54.50000000000001
  0
LINE
  5
243
100
AcDbEntity
  8
0
  6
ByLayer
 62
  256
370
   -1
100
AcDbLine
 10
-90
 20
54.50000000000001
 11
-90
 21
61.50000000000001
  0
LINE
  5
244
100
AcDbEntity
  8
0
  6
ByLayer
 62
  256
370
   -1
100
AcDbLine
 10
-87
 20
64.5
 11
-40
 21
64.5
  0
ARC
  5
245
100
AcDbEntity
  8
0
  6
ByLayer
 62
  256
370
   -1
100
AcDbCircle
 10
-87
 20
61.50000000000001
 40
3
100
AcDbArc
 50
90
 51
180
  0
LINE
  5
246
100
AcDbEntity
  8
0
  6
ByLayer
 62
  256
370
   -1
100
AcDbLine
 10
-90
 20
54.50000000000001
 11
-90
 21
47.50000000000001
  0
LINE
  5
247
100
AcDbEntity
  8
0
  6
ByLayer
 62
  256
370
   -1
100
AcDbLine
 10
-87
 20
44.50000000000001
 11
-40
 21
44.50000000000001
  0
ARC
  5
248
100
AcDbEntity
  8
0
  6
ByLayer
 62
  256
370
   -1
100
AcDbCircle
 10
-87
 20
47.50000000000001
 40
3
100
AcDbArc
 50
180
 51
270
  0
CIRCLE
  5
249
100
AcDbEntity
  8
0
  6
ByLayer
 62
  256
370
   -1
100
AcDbCircle
 10
251
 20
54.5
 40
52.5
  0
LINE
  5
24A
100
AcDbEntity
  8
0
  6
ByLayer
 62
  256
370
   -1
100
AcDbLine
 10
251
 20
-8
 11
314
 21
-8
  0
LINE
  5
24B
100
AcDbEntity
  8
0
  6
ByLayer
 62
  256
370
   -1
100
AcDbLine
 10
251
 20
-8
 11
188
 21
-8
  0
LINE
  5
24C
100
AcDbEntity
  8
0
  6
ByLayer
 62
  256
370
   -1
100
AcDbLine
 10
188
 20
-8
 11
188
 21
2
  0
LINE
  5
24D
100
AcDbEntity
  8
0
  6
ByLayer
 62
  256
370
   -1
100
AcDbLine
 10
314
 20
-8
 11
314
 21
2
  0
LINE
  5
24E
100
AcDbEntity
  8
0
  6
ByLayer
 62
  256
370
   -1
100
AcDbLine
 10
188
 20
2
 11
214.2576538582524
 21
17
  0
LINE
  5
24F
100
AcDbEntity
  8
0
  6
ByLayer
 62
  256
370
   -1
100
AcDbLine
 10
314
 20
2
 11
287.7423461417477
 21
17
  0
CIRCLE
  5
250
100
AcDbEntity
  8
0
  6
ByLayer
 62
  256
370
   -1
100
AcDbCircle
 10
251
 20
54.5
 40
10
  0
LINE
  5
251
100
AcDbEntity
  8
0
  6
ByLayer
 62
  256
370
   -1
100
AcDbLine
 10
223
 20
-8
 11
223
 21
2
  0
LINE
  5
252
100
AcDbEntity
  8
0
  6
ByLayer
 62
  256
370
   -1
100
AcDbLine
 10
279
 20
-8
 11
279
 21
2
  0
LINE
  5
253
100
AcDbEntity
  8
0
  6
ByLayer
 62
  256
370
   -1
100
AcDbLine
 10
188
 20
2
 11
223
 21
2
  0
LINE
  5
254
100
AcDbEntity
  8
0
  6
ByLayer
 62
  256
370
   -1
100
AcDbLine
 10
223
 20
2
 11
279
 21
2
  0
LINE
  5
255
100
AcDbEntity
  8
0
  6
ByLayer
 62
  256
370
   -1
100
AcDbLine
 10
279
 20
2
 11
314
 21
2
  0
CIRCLE
  5
256
100
AcDbEntity
  8
0
  6
ByLayer
 62
  256
370
   -1
100
AcDbCircle
 10
400
 20
47.5
 40
52.5
  0
LINE
  5
257
100
AcDbEntity
  8
0
  6
ByLayer
 62
  256
370
   -1
100
AcDbLine
 10
462.5000000000001
 20
47.49999999999999
 11
462.4999999999984
 21
110.5000000000015
  0
LINE
  5
258
100
AcDbEntity
  8
0
  6
ByLayer
 62
  256
370
   -1
100
AcDbLine
 10
462.5000000000001
 20
47.49999999999999
 11
462.5
 21
-15.49999999999997
  0
LINE
  5
259
100
AcDbEntity
  8
0
  6
ByLayer
 62
  256
370
   -1
100
AcDbLine
 10
462.5
 20
-15.49999999999997
 11
452.5
 21
-15.50000000000004
  0
LINE
  5
25A
100
AcDbEntity
  8
0
  6
ByLayer
 62
  256
370
   -1
100
AcDbLine
 10
462.4999999999984
 20
110.5000000000015
 11
452.5
 21
110.5
  0
LINE
  5
25B
100
AcDbEntity
  8
0
  6
ByLayer
 62
  256
370
   -1
100
AcDbLine
 10
452.5
 20
-15.50000000000004
 11
437.5
 21
10.75765385825225
  0
LINE
  5
25C
100
AcDbEntity
  8
0
  6
ByLayer
 62
  256
370
   -1
100
AcDbLine
 10
452.5
 20
110.5
 11
437.4999999999998
 21
84.24234614174802
  0
CIRCLE
  5
25D
100
AcDbEntity
  8
0
  6
ByLayer
 62
  256
370
   -1
100
AcDbCircle
 10
400
 20
47.5
 40
10
  0
LINE
  5
25E
100
AcDbEntity
  8
0
  6
ByLayer
 62
  256
370
   -1
100
AcDbLine
 10
462.5
 20
19.49999999999995
 11
452.5
 21
19.50000000000001
  0
LINE
  5
25F
100
AcDbEntity
  8
0
  6
ByLayer
 62
  256
370
   -1
100
AcDbLine
 10
462.5
 20
75.5
 11
452.5
 21
75.49999999999997
  0
LINE
  5
260
100
AcDbEntity
  8
0
  6
ByLayer
 62
  256
370
   -1
100
AcDbLine
 10
452.5
 20
-15.50000000000004
 11
452.5
 21
19.50000000000001
  0
LINE
  5
261
100
AcDbEntity
  8
0
  6
ByLayer
 62
  256
370
   -1
100
AcDbLine
 10
452.5
 20
19.50000000000001
 11
452.5
 21
75.49999999999997
  0
LINE
  5
262
100
AcDbEntity
  8
0
  6
ByLayer
 62
  256
370
   -1
100
AcDbLine
 10
452.5
 20
75.49999999999997
 11
452.5
 21
110.5
  0
ARC
  5
263
100
AcDbEntity
  8
part1
  6
ByLayer
 62
  256
370
   -1
100
AcDbCircle
 10
474.9999999999985
 20
98.00000000000152
 40
12.5
100
AcDbArc
 50
0
 51
90
  0
LINE
  5
264
100
AcDbEntity
  8
part1
  6
ByLayer
 62
  256
370
   -1
100
AcDbLine
 10
487.4999999999985
 20
98.00000000000168
 11
487.4999999999999
 21
-2.999999999999801
  0
ARC
  5
265
100
AcDbEntity
  8
part1
  6
ByLayer
 62
  256
370
   -1
100
AcDbCircle
 10
474.9999999999999
 20
-2.999999999999972
 40
12.5
100
AcDbArc
 50
270
 51
0
  0
LINE
  5
266
100
AcDbEntity
  8
part2
  6
ByLayer
 62
  256
370
   -1
100
AcDbLine
 10
483.8388347648303
 20
89.16116523516968
 11
540.4073772597541
 21
145.7297077300935
  0
LINE
  5
267
100
AcDbEntity
  8
part2
  6
ByLayer
 62
  256
370
   -1
100
AcDbLine
 10
466.1611652351665
 20
106.8388347648334
 11
522.7297077300904
 21
163.4073772597572
  0
LINE
  5
268
100
AcDbEntity
  8
part2
  6
ByLayer
 62
  256
370
   -1
100
AcDbLine
 10
493.3847763108486
 20
122.0416305603441
 11
528.740115370176
 21
157.3969696196715
  0
LINE
  5
269
100
AcDbEntity
  8
part2
  6
ByLayer
 62
  256
370
   -1
100
AcDbLine
 10
499.041630560341
 20
116.3847763108518
 11
534.3969696196684
 21
151.7401153701792
  0
ARC
  5
26A
100
AcDbEntity
  8
part2
  6
CONTINUOUS
 62
    5
370
    0
100
AcDbCircle
 10
531.5685424949222
 20
154.5685424949253
 40
12.5
100
AcDbArc
 50
315
 51
135
  0
ARC
  5
26B
100
AcDbEntity
  8
part2
  6
CONTINUOUS
 62
    5
370
    0
100
AcDbCircle
 10
531.5685424949222
 20
154.5685424949253
 40
4
100
AcDbArc
 50
315.0000000000003
 51
135
  0
LINE
  5
26C
100
AcDbEntity
  8
part2
  6
ByLayer
 62
  256
370
   -1
100
AcDbLine
 10
486.313708498983
 20
114.9705627484787
 11
493.3847763108486
 21
122.0416305603442
  0
LINE
  5
26D
100
AcDbEntity
  8
part2
  6
ByLayer
 62
  256
370
   -1
100
AcDbLine
 10
491.9705627484755
 20
109.3137084989863
 11
499.041630560341
 21
116.3847763108518
  0
ARC
  5
26E
100
AcDbEntity
  8
part2
  6
CONTINUOUS
 62
    5
370
    0
100
AcDbCircle
 10
489.1421356237292
 20
112.1421356237325
 40
4
100
AcDbArc
 50
135.0000000000001
 51
315.0000000000005
  0
ARC
  5
26F
100
AcDbEntity
  8
part2
  6
CONTINUOUS
 62
    5
370
    0
100
AcDbCircle
 10
474.9999999999984
 20
98.00000000000152
 40
12.5
100
AcDbArc
 50
135.0000000000001
 51
315.0000000000001
  0
CIRCLE
  5
270
100
AcDbEntity
  8
part3
  6
ByLayer
 62
  256
370
   -1
100
AcDbCircle
 10
494.7499999999984
 20
117.7500000000016
 40
4
  0
ARC
  5
271
100
AcDbEntity
  8
0
  6
CONTINUOUS
 62
    7
370
    0
100
AcDbCircle
 10
515
 20
97.5
 40
12.5
100
AcDbArc
 50
224.9999999999999
 51
224.9999999999999
  0
ARC
  5
272
100
AcDbEntity
  8
part3
  6
CONTINUOUS
 62
    3
370
    0
100
AcDbCircle
 10
494.7499999999984
 20
117.7500000000016
 40
18
100
AcDbArc
 50
45.00000000000001
 51
225
  0
CIRCLE
  5
273
100
AcDbEntity
  8
part4
  6
ByLayer
 62
  256
370
   -1
100
AcDbCircle
 10
475
 20
-2.999999999999972
 40
4
  0
CIRCLE
  5
274
100
AcDbEntity
  8
part1
  6
ByLayer
 62
  256
370
   -1
100
AcDbCircle
 10
475
 20
-2.999999999999972
 40
4
  0
CIRCLE
  5
275
100
AcDbEntity
  8
part1
  6
ByLayer
 62
  256
370
   -1
100
AcDbCircle
 10
474.9999999999984
 20
98.00000000000152
 40
4
  0
CIRCLE
  5
276
100
AcDbEntity
  8
part2
  6
ByLayer
 62
  256
370
   -1
100
AcDbCircle
 10
474.9999999999984
 20
98.00000000000152
 40
4
  0
ARC
  5
277
100
AcDbEntity
  8
part4
  6
CONTINUOUS
 62
    6
370
    0
100
AcDbCircle
 10
474.9999999999999
 20
-2.999999999999972
 40
18
100
AcDbArc
 50
24.17910714668898
 51
204.1791071466894
  0
ARC
  5
278
100
AcDbEntity
  8
part4
  6
ByLayer
 62
  256
370
   -1
100
AcDbCircle
 10
473.3086051299661
 20
-32.10201002311767
 40
1
100
AcDbArc
 50
294.1791071466888
 51
19.93108447996029
  0
ARC
  5
279
100
AcDbEntity
  8
part4
  6
CONTINUOUS
 62
    6
370
    0
100
AcDbCircle
 10
486
 20
-27.5
 40
12.5
100
AcDbArc
 50
28.42712981341763
 51
199.9310844799608
  0
ARC
  5
27A
100
AcDbEntity
  8
part4
  6
ByLayer
 62
  256
370
   -1
100
AcDbCircle
 10
497.8722140643663
 20
-21.07345090971344
 40
1
100
AcDbArc
 50
208.4271298134188
 51
294.1791071466886
  0
LINE
  5
27B
100
AcDbEntity
  8
part4
  6
ByLayer
 62
  256
370
   -1
100
AcDbLine
 10
498.2818044672001
 20
-21.9857204432979
 11
501.5085820709359
 21
-20.5369631518247
  0
LINE
  5
27C
100
AcDbEntity
  8
part4
  6
ByLayer
 62
  256
370
   -1
100
AcDbLine
 10
491.4208516045202
 20
4.372627251009099
 11
502.0112612016865
 21
-19.21510321540643
  0
ARC
  5
27D
100
AcDbEntity
  8
part4
  6
ByLayer
 62
  256
370
   -1
100
AcDbCircle
 10
501.098991668102
 20
-19.62469361824026
 40
1
100
AcDbArc
 50
294.1791071466889
 51
24.17910714668917
  0
LINE
  5
27E
100
AcDbEntity
  8
part4
  6
ByLayer
 62
  256
370
   -1
100
AcDbLine
 10
470.4914179290641
 20
-34.46303684817529
 11
473.7181955327999
 21
-33.01427955670212
  0
LINE
  5
27F
100
AcDbEntity
  8
part4
  6
ByLayer
 62
  256
370
   -1
100
AcDbLine
 10
458.5791483954796
 20
-10.37262725100913
 11
469.1695579926459
 21
-33.96035771742467
  0
ARC
  5
280
100
AcDbEntity
  8
part4
  6
ByLayer
 62
  256
370
   -1
100
AcDbCircle
 10
470.0818275262303
 20
-33.55076731459084
 40
1
100
AcDbArc
 50
204.1791071466893
 51
294.1791071466887
  0
LINE
  5
281
100
AcDbEntity
  8
part3
  6
ByLayer
 62
  256
370
   -1
100
AcDbLine
 10
507.4779220613563
 20
130.4779220613594
 11
527.0208152801713
 21
110.9350288425444
  0
ARC
  5
282
100
AcDbEntity
  8
part3
  6
ByLayer
 62
  256
370
   -1
100
AcDbCircle
 10
526.3137084989847
 20
110.2279220613578
 40
1
100
AcDbArc
 50
315
 51
45.00000000000058
  0
LINE
  5
283
100
AcDbEntity
  8
part3
  6
ByLayer
 62
  256
370
   -1
100
AcDbLine
 10
524.5197163823299
 20
107.0197163823299
 11
527.0208152801713
 21
109.5208152801713
  0
ARC
  5
284
100
AcDbEntity
  8
part3
  6
ByLayer
 62
  256
370
   -1
100
AcDbCircle
 10
523.8126096011433
 20
107.7268231635164
 40
1
100
AcDbArc
 50
229.2480226667263
 51
315
  0
ARC
  5
285
100
AcDbEntity
  8
part3
  6
CONTINUOUS
 62
    3
370
    0
100
AcDbCircle
 10
515
 20
97.5
 40
12.5
100
AcDbArc
 50
49.24802266672877
 51
220.7519773332713
  0
ARC
  5
286
100
AcDbEntity
  8
part3
  6
ByLayer
 62
  256
370
   -1
100
AcDbCircle
 10
504.7731768364836
 20
88.68739039885666
 40
1
100
AcDbArc
 50
315.0000000000006
 51
40.751977333273
  0
LINE
  5
287
100
AcDbEntity
  8
part3
  6
ByLayer
 62
  256
370
   -1
100
AcDbLine
 10
482.0220779386406
 20
105.0220779386437
 11
501.5649711574556
 21
85.47918471982869
  0
LINE
  5
288
100
AcDbEntity
  8
part3
  6
ByLayer
 62
  256
370
   -1
100
AcDbLine
 10
505.4802836176701
 20
87.98028361767012
 11
502.9791847198287
 21
85.47918471982869
  0
ARC
  5
289
100
AcDbEntity
  8
part3
  6
ByLayer
 62
  256
370
   -1
100
AcDbCircle
 10
502.2720779386422
 20
86.18629150101525
 40
1
100
AcDbArc
 50
225
 51
315
  0
LINE
  5
28A
100
AcDbEntity
  8
part1
  6
ByLayer
 62
  256
370
   -1
100
AcDbLine
 10
463.4999999999984
 20
110.5000000000015
 11
474.9999999999985
 21
110.5000000000015
  0
ARC
  5
28B
100
AcDbEntity
  8
part1
  6
ByLayer
 62
  256
370
   -1
100
AcDbCircle
 10
463.4999999999984
 20
109.5000000000015
 40
1
100
AcDbArc
 50
90
 51
180
  0
LINE
  5
28C
100
AcDbEntity
  8
part1
  6
ByLayer
 62
  256
370
   -1
100
AcDbLine
 10
462.4999999999984
 20
109.5000000000015
 11
462.5
 21
-14.49999999999999
  0
LINE
  5
28D
100
AcDbEntity
  8
part1
  6
ByLayer
 62
  256
370
   -1
100
AcDbLine
 10
463.5
 20
-15.49999999999997
 11
474.9999999999999
 21
-15.49999999999997
  0
ARC
  5
28E
100
AcDbEntity
  8
part1
  6
ByLayer
 62
  256
370
   -1
100
AcDbCircle
 10
463.5
 20
-14.49999999999997
 40
1
100
AcDbArc
 50
180
 51
270
  0
CIRCLE
  5
28F
100
AcDbEntity
  8
0
  6
ByLayer
 62
  256
370
   -1
100
AcDbCircle
 10
486
 20
-27.5
 40
12.5
  0
LINE
  5
290
100
AcDbEntity
  8
dimensions
  6
ByLayer
 62
  256
370
   -1
100
AcDbLine
 10
486
 20
-27.5
 11
486
 21
12.5
  0
LINE
  5
291
100
AcDbEntity
  8
dimensions
  6
ByLayer
 62
  256
370
   -1
100
AcDbLine
 10
475
 20
-2.999999999999972
 11
486
 21
-27.5
  0
DIMENSION
  5
292
100
AcDbEntity
  8
dimensions
  6
ByLayer
 62
  256
370
   -1
100
AcDbDimension
  2
*D26
 10
486
 20
12.5
 30
0
 11
-250
 21
-2.5
 31
0
 70
   34
 71
    5
 72
    0
  3
Standard
 53
0
210
0
220
0
230
1
100
AcDb2LineAngularDimension
 13
486
 23
-27.5
 33
0
 14
475
 24
-2.999999999999972
 34
0
 15
486
 25
-27.5
 35
0
 16
486
 26
-7.5
 36
0
  0
LINE
  5
293
100
AcDbEntity
  8
dimensions
  6
ByLayer
 62
  256
370
   -1
100
AcDbLine
 10
494.7499999999984
 20
117.7500000000016
 11
515
 21
97.5
  0
LINE
  5
294
100
AcDbEntity
  8
dimensions
  6
ByLayer
 62
  256
370
   -1
100
AcDbLine
 10
515
 20
97.5
 11
515
 21
137.5
  0
DIMENSION
  5
295
100
AcDbEntity
  8
dimensions
  6
ByLayer
 62
  256
370
   -1
100
AcDbDimension
  2
*D27
 10
515
 20
137.5
 30
0
 11
-250
 21
-2.5
 31
0
 70
   34
 71
    5
 72
    0
  3
Standard
 53
0
210
0
220
0
230
1
100
AcDb2LineAngularDimension
 13
515
 23
97.5
 33
0
 14
494.7499999999984
 24
117.7500000000016
 34
0
 15
515
 25
97.5
 35
0
 16
512.1231060122922
 26
117.4454364826316
 36
0
  0
DIMENSION
  5
296
100
AcDbEntity
  8
dimensions
  6
ByLayer
 62
  256
370
   -1
100
AcDbDimension
  2
*D28
 10
160
 20
-162.5
 30
0
 11
170
 21
-173
 31
0
 70
   32
 71
    5
 72
    0
  3
Standard
 53
0
210
0
220
0
230
1
100
AcDbAlignedDimension
 13
137.5
 23
-150
 33
0
 14
137.5
 24
-162.5
 34
0
 50
90
100
AcDbRotatedDimension
  0
DIMENSION
  5
297
100
AcDbEntity
  8
dimensions
  6
ByLayer
 62
  256
370
   -1
100
AcDbDimension
  2
*D29
 10
160
 20
-57.50000000000001
 30
0
 11
170
 21
-80
 31
0
 70
   32
 71
    5
 72
    0
  3
Standard
 53
0
210
0
220
0
230
1
100
AcDbAlignedDimension
 13
137.5
 23
-70
 33
0
 14
117.5
 24
-57.5
 34
0
 50
90
100
AcDbRotatedDimension
  0
DIMENSION
  5
298
100
AcDbEntity
  8
dimensions
  6
ByLayer
 62
  256
370
   -1
100
AcDbDimension
  2
*D30
 10
220
 20
-157
 30
0
 11
240
 21
-140
 31
0
 70
   36
 71
    5
 72
    0
  3
Standard
 53
0
210
0
220
0
230
1
100
AcDbRadialDimension
 15
226.3377515820424
 25
-146.2258223105279
 35
0
 40
0
  0
DIMENSION
  5
299
100
AcDbEntity
  8
dimensions
  6
ByLayer
 62
  256
370
   -1
100
AcDbDimension
  2
*D31
 10
238
 20
-165
 30
0
 11
230
 21
-170
 31
0
 70
   32
 71
    5
 72
    0
  3
Standard
 53
0
210
0
220
0
230
1
100
AcDbAlignedDimension
 13
232.5
 23
-157
 33
0
 14
238
 24
-157
 34
0
100
AcDbRotatedDimension
  0
DIMENSION
  5
29A
100
AcDbEntity
  8
dimensions
  6
ByLayer
 62
  256
370
   -1
100
AcDbDimension
  2
*D32
 10
207.5
 20
-165
 30
0
 11
200
 21
-170
 31
0
 70
   32
 71
    5
 72
    0
  3
Standard
 53
0
210
0
220
0
230
1
100
AcDbAlignedDimension
 13
202
 23
-157
 33
0
 14
207.5
 24
-157
 34
0
100
AcDbRotatedDimension
  0
ENDSEC
  0
SECTION
  2
OBJECTS
  0
DICTIONARY
  5
C
330
0
100
AcDbDictionary
281
    1
  3
ACAD_GROUP
350
D
  0
DICTIONARY
  5
D
330
C
100
AcDbDictionary
281
    1
  0
ENDSEC
  0
EOF
